ML
     
  Уважаемый Гость!
Вы можете поддержать проект и зарегистрироваться у наших партнеров - онлайн-стратегия MyLands. При регистрации в игре Вы получите код, который сможете активировать после регистрации на pirat.ca и получить 1000 дублонов.

Ваш код:
59354507ba913a0948d1a8f2e30f2e04c4cd7b9b
 
     

Её звали Муму (Владимир Мирзоев) [2016 г., драма, WEB-DLRip] [Режиссёрская версия (без цензуры)]

Ответить на тему
 
Автор
Сообщение

Пост 24-Окт-2016 17:32

[Q] 

somik

Легенда

-Её звали Муму / Режиссёрская версия (без цензуры)-- Производство: Россия, ООО «Фабула Филмс»
Режиссер: Владимир Мирзоев
Жанр: драма
Год выпуска: 2016 г.
Продолжительность: 01:32:26
В ролях: Ирина Вилкова, Елена Коренева, Ефим Шифрин, Пётр Фёдоров, Ольга Лапшина, Ольга Лысак, Валерия Приходченко, Ирина Бутанаева, Евгений Буслаков, Игорь Воробьёв, Юрий Сысоев, Кирилл Леднев, Сергей Басок, Александр Яцентюк-Описание: Главная героиня за нехитрые материальные блага соглашается – без угрызений совести – стать приманкой для оппозиционеров; соблазнить, снять секс скрытой камерой и обнародовать запись. Политолог, молодой лидер либерального движения, ветеран постсоветских войн с подвижной психикой, эстрадный артист на излете славы, поддерживающий протестные акции, – в постели девочки, мечтающей о карьере телеведущей, бесстрастной, бессовестной, холодной внутри... Почему-то именно здесь они раскрываются по-настоящему. Героиня не боится своих жутковатых кураторов. Как ни странно, в ней ещё сохранилось что-то настоящее, что обычно называют «совестью». Это история об истинном и ложном, о пустоте и поиске любви, о страхах и о пределах человеческого терпения. О важности личного выбора, о надежде, которая вырастает из надежно спрятанного в самой глубине воспоминания о детской любви, мечтах...
Это история серийного компромата. Режиссер Владимир Мирзоев снял художественный фильм о девушке, которая работала на российские спецслужбы, соблазняла оппозиционеров и выкладывала компрометирующие записи в сеть. История основана на реальных событиях. В 2009 году сразу несколько российских оппозиционных политиков и журналистов стали жертвами сексуальных провокаций со стороны некоей Екатерины Герасимовой по прозвищу Муму. Все это было частью большой спецоперации, которая и легла в основу художественного фильма.-Сэмпл КиноПоиск
Качество видео: WEB-DLRip
Контейнер: AVI
Видео кодек: XviD
Аудио кодек: AC3
Видео: 720x400 (1.80:1), 25 fps, XviD build 50 ~1914 kbps avg, 0.27 bit/pixel
Аудио: 48 kHz, AC3 Dolby Digital, 2/0 (L,R) ch, ~192 kbps
Cубтитры: отсутствуют
Общее
Полное имя : J:\Ее звали Муму (2016)\Ejo Zvali mumu.2016.O.WEB-DLRip.[pirat.ca].avi
Формат : AVI
Формат/Информация : Audio Video Interleave
Размер файла : 1,37 Гбайт
Продолжительность : 1 ч. 32 м.
Общий поток : 2117 Кбит/сек
Программа кодирования : VirtualDubMod 1.5.10.2 (build 2540/release)
Библиотека кодирования : VirtualDubMod build 2540/release
Видео
Идентификатор : 0
Формат : MPEG-4 Visual
Профиль формата : Advanced [email protected]
Параметр BVOP формата : 2
Параметр QPel формата : Нет
Параметр GMC формата : Без точки перехода
Параметр матрицы формата : Default (MPEG)
Идентификатор кодека : XVID
Идентификатор кодека/Подсказка : XviD
Продолжительность : 1 ч. 32 м.
Битрейт : 1915 Кбит/сек
Ширина : 720 пикселей
Высота : 400 пикселей
Соотношение сторон : 16:9
Частота кадров : 25,000 кадров/сек
Цветовое пространство : YUV
Субдискретизация насыщенности : 4:2:0
Битовая глубина : 8 бит
Тип развёртки : Прогрессивная
Метод сжатия : С потерями
Бит/(Пиксели*Кадры) : 0.266
Размер потока : 1,24 Гбайт (90%)
Библиотека кодирования : XviD 1.2.1 (UTC 2008-12-04)
Аудио
Идентификатор : 1
Формат : AC-3
Формат/Информация : Audio Coding 3
Расширение режима : CM (complete main)
Параметр Endianness формата : Big
Идентификатор кодека : 2000
Продолжительность : 1 ч. 32 м.
Вид битрейта : Постоянный
Битрейт : 192 Кбит/сек
Каналы : 2 канала
Расположение каналов : Front: L R
Частота : 48,0 КГц
Частота кадров : 31,250 кадров/сек (1536 spf)
Метод сжатия : С потерями
Размер потока : 127 Мбайт (9%)
Выравнивание : Разделение по промежуткам
Продолжительность промежутка : 40 мс. (1,00 видеокадр)
Время предзагрузки промежутка : 500 мс.
Download / Скачать

Хотите скачать бесплатно? Зарегистрируйтесь на сайте (ссылка на регистрацию). Pirat.ca - самый быстрый торрент трекер в рунете!

Как скачивать  ·   Что такое торрент  ·   Рейтинг и ограничения

Андрей1968

Корсар

29

Пост 26-Окт-2016 00:59 (спустя 1 день 7 часов)

[Q] 

что то до сих пор ни одного отзыва.хотя уже 95 скачавших ch
[Профиль]  [ЛС] 

колотов

Шкипер

Пост 26-Окт-2016 14:23 (спустя 13 часов)

[Q] 

Судя по трейлеру какая то чернуха в постперестроешном стиле. Не буду качать.
[Профиль]  [ЛС] 

ketzer

Морской Волк

Пост 29-Окт-2016 18:16 (спустя 3 дня)

[Q] 

Мне понравился, чистенько так снято, трогательно. Все стороны - сволочи и шестеренки беспощадной машины, в которую зажевало обычную бесперспективную барышню. Но тема совокупления с матрасом не раскрыта, только какое-то вялое поглаживание в исполнении Шифрина.
[Профиль]  [ЛС] 

kolopolk

Морской Волк

Пост 29-Окт-2016 19:18 (спустя 1 час 2 минуты)

[Q] 

На 12 скрине аблакат Фейгин штоле? Седой и с губами. Шифрин вроде же гомосек, куда ему в фильм про несчастную женскую половую писю?
[Профиль]  [ЛС] 

OLEG_PS2009

Флибустьер

Пост 21-Ноя-2016 13:10 (спустя 22 дня)

[Q] 

На любителя Мне не понравился!!!
[Профиль]  [ЛС] 

DHARMEEDONT

Флибустьер

Пост 22-Ноя-2016 21:25 (спустя 1 день 8 часов)

[Q] 

Актриса дико на Исинбаеву похожа. Аж страшно
[Профиль]  [ЛС] 

Пост 30-Ноя-2016 10:23 (спустя 7 дней)

Топик был перенесен из форума Новинки (HD|DVD|BD| TV|SAT|PDTV| - Rips) в форум Российские фильмы
aleksey99
 
Показать сообщения:    
Ответить на тему

Текущее время: Сегодня 16:09

Часовой пояс: GMT + 4



Вы не можете начинать темы
Вы не можете отвечать на сообщения
Вы не можете редактировать свои сообщения
Вы не можете удалять свои сообщения
Вы не можете голосовать в опросах
Вы не можете прикреплять файлы к сообщениям
Вы не можете скачивать файлы

▼ Вниз