ML
     
  Уважаемый Гость!
Вы можете поддержать проект и зарегистрироваться у наших партнеров - онлайн-стратегия MyLands. При регистрации в игре Вы получите код, который сможете активировать после регистрации на pirat.ca и получить 1000 дублонов.

Ваш код:
bc31d8aef74c92e19ad67e34a8fa63c3b9b812fb
 
     

Танцуй со мной (Михаил Шевчук) [2016 г., мелодрама, комедия, музыка, WEB-DLRip] Original (RUS)

Ответить на тему
 
Автор
Сообщение

Пост 29-Окт-2016 09:31

[Q] 

aleksey99

--Танцуй со мной--«Шаг вперед навстречу любви»-- Производство: Россия, M-production Media, Министерство культуры Российской Федерации, Мосфильм
Год выпуска: 2016 г.
Жанр: мелодрама, комедия, музыка
Продолжительность: 01:40:49--Российская мир: 14 июля 2016, «25th Floor Film»--Режиссер: Михаил Шевчук--В ролях: Анастасия Новикова, Лука Саббиони, Юрий Кригер, Нонна Гришаева, Лукерья Ильяшенко, Анар Халилов, Василий Ракша, Александр Резалин, Александра Киршина, Екатерина Шмакова--Описание: Некоторые учатся танцевать, а другие рождены для этого. То же самое и в любви. Итальянский режиссер Лука Маретти приезжает в Россию, чтобы снять танцевальный фильм о своей первой любви. Выбирая исполнительницу главной роли, Лука влюбляется в молодую актрису Катю. Катя же влюбляется в Никиту — исполнителя роли молодого Луки — известного танцора и обольстителя. Теперь их ждут новые чувства, страсть, соперничество, испытания, и все это в зажигательном ритме танца…-- --Качество видео: WEB-DLRip
Контейнер: AVI
Видео кодек: XviD
Аудио кодек: AC3
Видео: 720x384 (1.88:1), 25 fps, XviD build 50 ~1741 kbps avg, 0.25 bit/pixel
Аудио: 44.1 kHz, AC3 Dolby Digital, 2/0 (L,R) ch, ~192 kbps
Cубтитры: отсутствуют
Общее
Полное имя : H:\Torrent2\Tancuj.s0.mn0i.2016.WEB-DLRip.avi
Формат : AVI
Формат/Информация : Audio Video Interleave
Размер файла : 1,37 Гбайт
Продолжительность : 1 ч. 40 м.
Общий поток : 1944 Кбит/сек
Программа кодирования : VirtualDubMod 1.5.10.3 | www.virtualdub-fr.org || (build 2550/release)
Библиотека кодирования : VirtualDubMod build 2550/release
Видео
Идентификатор : 0
Формат : MPEG-4 Visual
Профиль формата : Advanced [email protected]
Параметр BVOP формата : 2
Параметр QPel формата : Нет
Параметр GMC формата : Без точки перехода
Параметр матрицы формата : Default (MPEG)
Идентификатор кодека : XVID
Идентификатор кодека/Подсказка : XviD
Продолжительность : 1 ч. 40 м.
Битрейт : 1742 Кбит/сек
Ширина : 720 пикселей
Высота : 384 пикселя
Соотношение сторон : 1,85:1
Частота кадров : 25,000 кадров/сек
Цветовое пространство : YUV
Субдискретизация насыщенности : 4:2:0
Битовая глубина : 8 бит
Тип развёртки : Прогрессивная
Метод сжатия : С потерями
Бит/(Пиксели*Кадры) : 0.252
Размер потока : 1,23 Гбайт (90%)
Библиотека кодирования : XviD 1.2.1 (UTC 2008-12-04)
Аудио
Идентификатор : 1
Формат : AC-3
Формат/Информация : Audio Coding 3
Расширение режима : CM (complete main)
Параметр Endianness формата : Big
Идентификатор кодека : 2000
Продолжительность : 1 ч. 40 м.
Вид битрейта : Постоянный
Битрейт : 192 Кбит/сек
Каналы : 2 канала
Расположение каналов : Front: L R
Частота : 44,1 КГц
Частота кадров : 28,711 кадров/сек (1536 spf)
Метод сжатия : С потерями
Размер потока : 138 Мбайт (10%)
Выравнивание : Разделение по промежуткам
Продолжительность промежутка : 40 мс. (1,00 видеокадр)
Время предзагрузки промежутка : 500 мс.
Трейлер
Download / Скачать

Хотите скачать бесплатно? Зарегистрируйтесь на сайте (ссылка на регистрацию). Pirat.ca - самый быстрый торрент трекер в рунете!

Как скачивать  ·   Что такое торрент  ·   Рейтинг и ограничения

kinstintin

Гроза морей

Пост 29-Окт-2016 18:52 (спустя 9 часов)

[Q] 

Спасибо!!!
посмотрим...
[Профиль]  [ЛС] 

litvig

Морской Волк

Пост 30-Окт-2016 14:55 (спустя 20 часов)

[Q] 

сразу скажу, что в целом я позитивно отношусь к русскому кино и старюсь смотреть, если уж не совсем откровенная чушь в трейлере. тут тоже. и трейлер хороший и начало тоже. очень понравился саундтрек (он вытаскивает фильм). по танцам тут прошлись поверхностно. до шага вперед и уж точно до таких танцевальных легенд как you got served и stomp the yard как до марса. что же до сюжета, то сценарист запорол хорошую идею. игра актеров на уровне фильма, режиссер тоже вроде старался, тч мое мнение слабый сценарий. наверное, порекомендую не смотреть. но если уж очень хочется, то музыка и игра актеров думаю вас порадует. Автору респект!!!
[Профиль]  [ЛС] 

Пост 30-Ноя-2016 10:32 (спустя 30 дней)

Топик был перенесен из форума Новинки (HD|DVD|BD| TV|SAT|PDTV| - Rips) в форум Российские фильмы
aleksey99
 
Показать сообщения:    
Ответить на тему

Текущее время: Сегодня 12:03

Часовой пояс: GMT + 4



Вы не можете начинать темы
Вы не можете отвечать на сообщения
Вы не можете редактировать свои сообщения
Вы не можете удалять свои сообщения
Вы не можете голосовать в опросах
Вы не можете прикреплять файлы к сообщениям
Вы не можете скачивать файлы

▼ Вниз