ML
     
  Уважаемый Гость!
Вы можете поддержать проект и зарегистрироваться у наших партнеров - онлайн-стратегия MyLands. При регистрации в игре Вы получите код, который сможете активировать после регистрации на pirat.ca и получить 1000 дублонов.

Ваш код:
dbd0d701284cde74a1f34d06ce20b7bc75a73e75
 
     

Забудь меня, мама! (Денис Елеонский) [2016 г., мелодрама, WEB-DLRip]

Ответить на тему
 
Автор
Сообщение

Пост 29-Окт-2016 20:03

[Q] 

somik

Легенда

-Забудь меня, мама!-- Производство: Россия, "Энерджи Фильм Продакшен"
Режиссер: Денис Елеонский
Жанр: мелодрама
Год выпуска: 2016 г.
Продолжительность: 01:33:11
Российская премьера: 28 октября 2016
В ролях: Евгения Лоза, Елена Валюшкина, Алексей Митин, Яков Кучеревский, Анатолий Лобоцкий, Евгений Лебедин, Инна Мирошниченко, Денис Гранчак, Дарья Трегубова, Вероника Лукьяненко, Владимир Ямненко, Илья Носков, Марина Куклина-Описание: Чтобы спасти сына Павла от колонии для малолетних преступников, Антонина вынуждена отказаться от десятилетней дочери Марины. Перед таким драматичным выбором ставит женщину её бывший муж.
Однако, спустя много лет, Антонина с горечью понимает, что её жертва была напрасной. Потеряв дочь, она так и не смогла уберечь сына — Павел пошёл по наклонной, а дочь Марина, ставшая судьёй, так и не простила мать и считает её источником всех своих бед. Да и саму Антонину неотступно терзает чувство вины. Она не может позволить себе быть счастливой, пока дочь не простит её. Но, несмотря на все усилия Антонины, ненависть дочери только крепнет.
Вскоре с Мариной случается несчастье — один из бывших подсудимых, желая отомстить, наносит ей несколько ножевых ранений. Прогнозы врачей неутешительны — Марина навсегда останется прикованной к постели.
На пике отчаяния, она просит мать помочь ей уйти из жизни. Найдёт ли Антонина силы выполнить просьбу дочери, не дождавшись её прощения?-Сэмпл КиноПоиск
Качество видео: WEB-DLRip
Контейнер: AVI
Видео кодек: XviD
Аудио кодек: AC3
Видео: 720x400 (1.80:1), 25 fps, XviD build 73 ~1895 kbps avg, 0.26 bit/pixel
Аудио: 48 kHz, AC3 Dolby Digital, 2/0 (L,R) ch, ~192 kbps
Cубтитры: отсутствуют
Общее
Полное имя : J:\Забудь меня, мама!\Zabudj menja, mama!2016.WEB-DLRip.[pirat.ca].avi
Формат : AVI
Формат/Информация : Audio Video Interleave
Размер файла : 1,37 Гбайт
Продолжительность : 1 ч. 33 м.
Общий поток : 2097 Кбит/сек
Программа кодирования : VirtualDubMod 1.5.10.3 | www.virtualdub-fr.org || (build 2550/release)
Библиотека кодирования : VirtualDubMod build 2550/release
Видео
Идентификатор : 0
Формат : MPEG-4 Visual
Профиль формата : Advanced [email protected]
Параметр BVOP формата : 1
Параметр QPel формата : Нет
Параметр GMC формата : Без точки перехода
Параметр матрицы формата : Выборочная
Идентификатор кодека : XVID
Идентификатор кодека/Подсказка : XviD
Продолжительность : 1 ч. 33 м.
Битрейт : 1896 Кбит/сек
Ширина : 720 пикселей
Высота : 400 пикселей
Соотношение сторон : 16:9
Частота кадров : 25,000 кадров/сек
Цветовое пространство : YUV
Субдискретизация насыщенности : 4:2:0
Битовая глубина : 8 бит
Тип развёртки : Прогрессивная
Метод сжатия : С потерями
Бит/(Пиксели*Кадры) : 0.263
Размер потока : 1,23 Гбайт (90%)
Библиотека кодирования : XviD 73
Аудио
Идентификатор : 1
Формат : AC-3
Формат/Информация : Audio Coding 3
Расширение режима : CM (complete main)
Параметр Endianness формата : Big
Идентификатор кодека : 2000
Продолжительность : 1 ч. 33 м.
Вид битрейта : Постоянный
Битрейт : 192 Кбит/сек
Каналы : 2 канала
Расположение каналов : Front: L R
Частота : 48,0 КГц
Частота кадров : 31,250 кадров/сек (1536 spf)
Метод сжатия : С потерями
Размер потока : 128 Мбайт (9%)
Выравнивание : Разделение по промежуткам
Продолжительность промежутка : 40 мс. (1,00 видеокадр)
Время предзагрузки промежутка : 500 мс.
Download / Скачать

Хотите скачать бесплатно? Зарегистрируйтесь на сайте (ссылка на регистрацию). Pirat.ca - самый быстрый торрент трекер в рунете!

Как скачивать  ·   Что такое торрент  ·   Рейтинг и ограничения

realyu

Корсар

Пост 30-Окт-2016 00:03 (спустя 4 часа)

[Q] 

КП говорит, что это 1ый сезон мини-сериала... wtf?
[Профиль]  [ЛС] 

alex11959

Флибустьер

Пост 30-Окт-2016 00:25 (спустя 21 минута)

[Q] 

На любителя !!!!!!!!!!!!
[Профиль]  [ЛС] 

Пост 30-Ноя-2016 10:32 (спустя 1 месяц)

Топик был перенесен из форума Новинки (HD|DVD|BD| TV|SAT|PDTV| - Rips) в форум Российские фильмы
aleksey99
 
Показать сообщения:    
Ответить на тему

Текущее время: Сегодня 18:33

Часовой пояс: GMT + 4



Вы не можете начинать темы
Вы не можете отвечать на сообщения
Вы не можете редактировать свои сообщения
Вы не можете удалять свои сообщения
Вы не можете голосовать в опросах
Вы не можете прикреплять файлы к сообщениям
Вы не можете скачивать файлы

▼ Вниз