ML
     
  Уважаемый Гость!
Вы можете поддержать проект и зарегистрироваться у наших партнеров - онлайн-стратегия MyLands. При регистрации в игре Вы получите код, который сможете активировать после регистрации на pirat.ca и получить 1000 дублонов.

Ваш код:
74c28610d77aaac24ba694c4128f3b9b46b04220
 
     

Дуэлянт (Алексей Мизгирёв) [2016 г., драма, WEB-DLRip] Original (RUS)[iTunes]

Ответить на тему
 
Автор
Сообщение

Пост 31-Окт-2016 08:13

[Q] 

aleksey99

--Дуэлянт--«На темной стороне чести»-- Производство: Россия, Нон-стоп Продакшн
Год выпуска: 2016 г.
Жанр: драма
Продолжительность: 01:44:43--Мировая премьера: 9 сентября 2016
Российская премьера: 29 сентября 2016, «WDSSPR»--Режиссер: Алексей Мизгирёв--В ролях: Пётр Фёдоров, Владимир Машков, Юлия Хлынина, Франциска Петри, Мартин Вуттке, Сергей Гармаш, Павел Табаков, Юрий Колокольников, Александр Яценко, Юрий Кузнецов--Описание: В центре сюжета профессиональный дуэлянт, который зарабатывает на жизнь, участвуя в поединках за других людей.-- --Качество видео: WEB-DLRip
Контейнер: AVI
Видео кодек: XviD
Аудио кодек: AC3
Видео: 720x304 (2.37:1), 25 fps, XviD build 50 ~1594 kbps avg, 0.29 bit/pixel
Аудио: 48 kHz, AC3 Dolby Digital, 2/0 (L,R) ch, ~384 kbps
Cубтитры: отсутствуют
Общее
Полное имя : D:\Torrent 2\Dy3lHyat.2016.O.WEB-DLRip.1.46GB.avi
Формат : AVI
Формат/Информация : Audio Video Interleave
Размер файла : 1,45 Гбайт
Продолжительность : 1 ч. 44 м.
Общий поток : 1989 Кбит/сек
Программа кодирования : VirtualDubMod 1.5.10.2 (build 2540/release)
Библиотека кодирования : VirtualDubMod build 2540/release
Видео
Идентификатор : 0
Формат : MPEG-4 Visual
Профиль формата : Advanced [email protected]
Параметр BVOP формата : 2
Параметр QPel формата : Нет
Параметр GMC формата : Без точки перехода
Параметр матрицы формата : Default (MPEG)
Идентификатор кодека : XVID
Идентификатор кодека/Подсказка : XviD
Продолжительность : 1 ч. 44 м.
Битрейт : 1595 Кбит/сек
Ширина : 720 пикселей
Высота : 304 пикселя
Соотношение сторон : 2,35:1
Частота кадров : 25,000 кадров/сек
Цветовое пространство : YUV
Субдискретизация насыщенности : 4:2:0
Битовая глубина : 8 бит
Тип развёртки : Прогрессивная
Метод сжатия : С потерями
Бит/(Пиксели*Кадры) : 0.291
Размер потока : 1,17 Гбайт (80%)
Библиотека кодирования : XviD 1.2.1 (UTC 2008-12-04)
Аудио
Идентификатор : 1
Формат : AC-3
Формат/Информация : Audio Coding 3
Расширение режима : CM (complete main)
Параметр Endianness формата : Big
Идентификатор кодека : 2000
Продолжительность : 1 ч. 44 м.
Вид битрейта : Постоянный
Битрейт : 384 Кбит/сек
Каналы : 2 канала
Расположение каналов : Front: L R
Частота : 48,0 КГц
Метод сжатия : С потерями
Размер потока : 288 Мбайт (19%)
Выравнивание : Разделение по промежуткам
Продолжительность промежутка : 40 мс. (1,00 видеокадр)
Время предзагрузки промежутка : 500 мс.
Трейлер
Download / Скачать

Хотите скачать бесплатно? Зарегистрируйтесь на сайте (ссылка на регистрацию). Pirat.ca - самый быстрый торрент трекер в рунете!

Как скачивать  ·   Что такое торрент  ·   Рейтинг и ограничения

Barskavkaz

Корсар

Пост 31-Окт-2016 21:10 (спустя 12 часов)

[Q] 

Благодарю!) давно хотел посмотреть, забираю!

_________________
Д.Тк
[Профиль]  [ЛС] 

kinstintin

Гроза морей

Пост 31-Окт-2016 22:56 (спустя 1 час 46 минут)

[Q] 

Спасибо!!!
Автору респект!!!
[Профиль]  [ЛС] 

Barskavkaz

Корсар

Пост 01-Ноя-2016 11:52 (спустя 12 часов)

[Q] 

Посмотрел вчера перед сном кино, мне все понравилось, советую смотреть.

_________________
Д.Тк
[Профиль]  [ЛС] 

Max72

Штурман

Пост 01-Ноя-2016 12:23 (спустя 30 минут)

[Q] 

Спасибо!!! Раздающему респект! советую смотреть
[Профиль]  [ЛС] 

litvig

Морской Волк

Пост 01-Ноя-2016 20:55 (спустя 8 часов)

[Q] 

смотрели в кино. фильм понравился. есть сюжет, игра актеров, в общем все составляющие. думаю даже можно пересмотреть будет Автору респект!!!
[Профиль]  [ЛС] 

ZhekasCat

Морской Волк

35

Пост 02-Ноя-2016 06:34 (спустя 9 часов)

[Q] 

Держит в напряжении весь фильм.Актёры молодцы. Спасибо!!!
[Профиль]  [ЛС] 

ss80

Флибустьер

36

Пост 02-Ноя-2016 23:23 (спустя 16 часов)

[Q] 

Спасибо!!! Автору респект!!!
[Профиль]  [ЛС] 

Пост 30-Ноя-2016 10:32 (спустя 27 дней)

Топик был перенесен из форума Новинки (HD|DVD|BD| TV|SAT|PDTV| - Rips) в форум Российские фильмы
aleksey99
 
Показать сообщения:    
Ответить на тему

Текущее время: Сегодня 09:55

Часовой пояс: GMT + 4



Вы не можете начинать темы
Вы не можете отвечать на сообщения
Вы не можете редактировать свои сообщения
Вы не можете удалять свои сообщения
Вы не можете голосовать в опросах
Вы не можете прикреплять файлы к сообщениям
Вы не можете скачивать файлы

▼ Вниз