ML
     
  Уважаемый Гость!
Вы можете поддержать проект и зарегистрироваться у наших партнеров - онлайн-стратегия MyLands. При регистрации в игре Вы получите код, который сможете активировать после регистрации на pirat.ca и получить 1000 дублонов.

Ваш код:
bc31d8aef74c92e19ad67e34a8fa63c3b9b812fb
 
     

На перекрёстке радости и горя (Владислав Николаев) [2016 г., мелодрама, HDTVRip]

Ответить на тему
 
Автор
Сообщение

Пост 31-Окт-2016 18:27

[Q] 

somik

Легенда

-На перекрёстке радости и горя-- Производство: Россия, Кинокомпания «Русское»
Режиссер: Владислав Николаев
Жанр: мелодрама
Год выпуска: 2016 г.
Продолжительность: 03:07:02
Российская премьера: 25 июня 2016
В ролях: Марина Коняшкина, Кирилл Кяро, Иван Кокорин, Яна Крайнова, Ксения Щербакова, Анастасия Калашникова, Сергей Беляев, Дмитрий Мазуров, Богдан Щукин, Анна Антонова, Александр Кильбург, Анастасия Фролова-Описание: Вера Сергеевна вынуждена переехать из родного города Санкт-Петербурга в небольшой провинциальный город. Там она и устраивается преподавателем литературы в местную школу. В первый же день у Веры разгорается конфликт с задиристой ученицей Дашей. Вера возмущена поведением девочки и не подозревает, что у нее серьезные проблемы в семье. Дома Вере «не дают спать спокойно» скандалы соседей. Вера терпеливо сносит неприятности, не заводит подруг, общается только с Зоей, своей однокурсницей, которая и позвала ее в этот город. У Веры есть своя тайна — ее муж Степан в тюрьме. Но когда жизнь ее сталкивает с проблемами девочек Даши и Насти, она понимает, что не может жить, отгородившись от мира.-Сэмпл КиноПоиск
Качество видео: HDTVRip
Контейнер: AVI
Видео кодек: XviD
Аудио кодек: AC3
Видео: 720x400 (1.80:1), 25 fps, XviD build 73 ~1845 kbps avg, 0.26 bit/pixel
Аудио: 48 kHz, AC3 Dolby Digital, 2/0 (L,R) ch, ~192 kbps
Cубтитры: отсутствуют
Общее
Полное имя : D:\D\На перекрестке радости и горя [01-02 из 02] (2016) HDTVRip\Na perekrjostke radosti i gorja.2016.HDTVRip.[pirat.ca]\01.Na perekrjostke radosti i gorja.2016.HDTVRip.[pirat.ca].avi
Формат : AVI
Формат/Информация : Audio Video Interleave
Размер файла : 1,37 Гбайт
Продолжительность : 1 ч. 35 м.
Общий поток : 2048 Кбит/сек
Программа кодирования : VirtualDubModRus 1.5.10.2 (build 2542/release)
Библиотека кодирования : VirtualDubMod build 2542/release
Видео
Идентификатор : 0
Формат : MPEG-4 Visual
Профиль формата : Advanced [email protected]
Параметр BVOP формата : 1
Параметр QPel формата : Нет
Параметр GMC формата : Без точки перехода
Параметр матрицы формата : Выборочная
Идентификатор кодека : XVID
Идентификатор кодека/Подсказка : XviD
Продолжительность : 1 ч. 35 м.
Битрейт : 1846 Кбит/сек
Ширина : 720 пикселей
Высота : 400 пикселей
Соотношение сторон : 16:9
Частота кадров : 25,000 кадров/сек
Цветовое пространство : YUV
Субдискретизация насыщенности : 4:2:0
Битовая глубина : 8 бит
Тип развёртки : Прогрессивная
Метод сжатия : С потерями
Бит/(Пиксели*Кадры) : 0.256
Размер потока : 1,24 Гбайт (90%)
Библиотека кодирования : XviD 73
Аудио
Идентификатор : 1
Формат : AC-3
Формат/Информация : Audio Coding 3
Расширение режима : CM (complete main)
Параметр Endianness формата : Big
Идентификатор кодека : 2000
Продолжительность : 1 ч. 35 м.
Вид битрейта : Постоянный
Битрейт : 192 Кбит/сек
Каналы : 2 канала
Расположение каналов : Front: L R
Частота : 48,0 КГц
Частота кадров : 31,250 кадров/сек (1536 spf)
Метод сжатия : С потерями
Размер потока : 132 Мбайт (9%)
Выравнивание : Разделение по промежуткам
Продолжительность промежутка : 40 мс. (1,00 видеокадр)
Время предзагрузки промежутка : 500 мс.
Download / Скачать

Хотите скачать бесплатно? Зарегистрируйтесь на сайте (ссылка на регистрацию). Pirat.ca - самый быстрый торрент трекер в рунете!

Как скачивать  ·   Что такое торрент  ·   Рейтинг и ограничения

Показать сообщения:    
Ответить на тему

Текущее время: Сегодня 12:02

Часовой пояс: GMT + 4



Вы не можете начинать темы
Вы не можете отвечать на сообщения
Вы не можете редактировать свои сообщения
Вы не можете удалять свои сообщения
Вы не можете голосовать в опросах
Вы не можете прикреплять файлы к сообщениям
Вы не можете скачивать файлы

▼ Вниз