ML
     
  Уважаемый Гость!
Вы можете поддержать проект и зарегистрироваться у наших партнеров - онлайн-стратегия MyLands. При регистрации в игре Вы получите код, который сможете активировать после регистрации на pirat.ca и получить 1000 дублонов.

Ваш код:
2a3da67fd641d69eeebb7cb965232435a70eaa24
 
     

Бой с тенью 3D: Последний раунд (Алексей Сидоров) [2011 г., боевик, драма, криминал, приключения, BDRip-AVC][internal release]

Ответить на тему
 
Автор
Сообщение

Пост 03-Фев-2012 10:59

[Q] 

zyyx

--Бой с тенью 3D: Последний раунд
«Последний раунд решает всё»
-- Год выпуска: 2011
Мировая премьера: 10 сентября 2011
Российская премьера: 22 сентября 2011, «Централ Партнершип»
Дата выхода DVD: 22 декабря 2011, «Новый Диск»
Жанр: боевик, драма, криминал, приключения
Продолжительность: 02:06:36
Перевод: Оригинал [Лицензия]
Режиссер: Алексей Сидоров
В ролях: Денис Никифоров, Андрей Панин, Елена Панова, Бату Хасиков, Михаил Горевой, Дмитрий Шевченко, Ольга Дибцева, Софья Мицкевич, Сергей Рябых, Шакрит Ямнарм
Описание: Боксер-чемпион Артем Колчин достиг всех мыслимых вершин и стал национальным героем. На ринг он больше не выходит, предпочитая тренерскую работу и бурную светскую жизнь с постоянным мельканием на ТВ, тусовками и интрижками. А дома его по утрам встречают дочка и жена Вика, которая больше не узнает в нем того Артема, которого она когда-то полюбила…
Внешне благополучному существованию Колчина приходит конец, когда его подопечного чуть не убивает в бою знаменитый Куэрте. Артем подозревает, что тот использует некую запрещенную технику. За доказательствами ему приходится отправиться в Гонконг, где его ждет старый знакомый Вагит Валиев: он знает о Куэрте то, чего не знает больше ни один человек. Чтобы победить, Артему придется снова выйти на ринг.
Источник/Качество: BDRip-AVC | Сэмпл
Формат: MKV
Видео кодек: H.26x
Аудио кодек: AC3
Видео: 1040x432, 23.976 fps, 1930 Kbps
Аудио: 48.0 KHz, 6 ch, 384 Kbps
General
Complete name : C:\Boj.s.tenju-3D.Poslednij.raund.2011.BDRip-AVC.zyyx.mkv
Format : Matroska
File size : 2.05 GiB
Duration : 2h 6mn
Overall bit rate : 2 314 Kbps
Encoded date : UTC 2012-02-03 04:36:07
Writing application : mkvmerge v4.6.0 ('Still Crazy After All These Years') сборка от Mar 13 2011 18:33:29
Writing library : libebml v1.2.0 + libmatroska v1.1.0
Video
ID : 1
Format : AVC
Format/Info : Advanced Video Codec
Format profile : [email protected]
Format settings, CABAC : Yes
Format settings, ReFrames : 16 frames
Muxing mode : Container [email protected]
Codec ID : V_MPEG4/ISO/AVC
Duration : 2h 6mn
Bit rate : 1 884 Kbps
Nominal bit rate : 1 930 Kbps
Width : 1 040 pixels
Height : 432 pixels
Display aspect ratio : 2.40:1
Frame rate : 23.976 fps
Resolution : 24 bits
Colorimetry : 4:2:0
Scan type : Progressive
Bits/(Pixel*Frame) : 0.175
Stream size : 1.66 GiB (81%)
Writing library : x264 core 114 r1924 08d04a4
Audio
ID : 2
Format : AC-3
Format/Info : Audio Coding 3
Codec ID : A_AC3
Duration : 2h 6mn
Bit rate mode : Constant
Bit rate : 384 Kbps
Channel(s) : 6 channels
Channel positions : Front: L C R, Surround: L R, LFE
Sampling rate : 48.0 KHz
Stream size : 348 MiB (17%)
Download / Скачать

Хотите скачать бесплатно? Зарегистрируйтесь на сайте (ссылка на регистрацию). Pirat.ca - самый быстрый торрент трекер в рунете!

Как скачивать  ·   Что такое торрент  ·   Рейтинг и ограничения

Пост 03-Фев-2012 11:11 (спустя 11 минут)

Топик был перенесен из форума Наше Кино в форум Новинки (HD|DVD|BD|TV|SAT|PDTV| - Rips)

Skinwalker
 

egor126

Гроза морей

Пост 03-Фев-2012 11:15 (спустя 15 минут)

[Q] 

спасибо.
[Профиль]  [ЛС] 

berezeca

Корсар

Пост 03-Фев-2012 15:21 (спустя 4 часа)

[Q] 

спасибо.
[Профиль]  [ЛС] 

Andruxa86

Морской Волк

Пост 03-Фев-2012 16:32 (спустя 1 час 11 минут)

[Q] 

[Профиль]  [ЛС] 

Шкипер_Саныч

Морской Волк

Пост 03-Фев-2012 18:40 (спустя 2 часа 8 минут)

[Q] 

Благодарствую.
[Профиль]  [ЛС] 

Andruxa86

Морской Волк

Пост 03-Фев-2012 19:38 (спустя 57 минут)

[Q] 

[Профиль]  [ЛС] 

LORD OR

Корсар

Пост 03-Фев-2012 21:03 (спустя 1 час 25 минут)

[Q] 

[Профиль]  [ЛС] 

KIRST

Корсар

Пост 03-Фев-2012 22:05 (спустя 1 час 2 минуты)

[Q] 

[Профиль]  [ЛС] 

wirtual

Гроза морей

Пост 04-Фев-2012 15:32 (спустя 17 часов)

[Q] 

для России - очень достойный боевиГ

_________________
не будешь делиться - останешься одноклеточным
[Профиль]  [ЛС] 

ravinmtv

Морской Волк

Пост 07-Фев-2012 14:18 (спустя 2 дня 22 часа)

[Q] 

[Профиль]  [ЛС] 

xprotm

Корсар

5

Пост 07-Фев-2012 20:06 (спустя 5 часов)

[Q] 

[Профиль]  [ЛС] 

KOS1612

Корсар

Пост 07-Фев-2012 21:12 (спустя 1 час 6 минут)

[Q] 

[Профиль]  [ЛС] 

bmf2000

Корсар

Пост 08-Фев-2012 22:32 (спустя 1 день 1 час)

[Q] 

[Профиль]  [ЛС] 

dp

Корсар

Пост 09-Фев-2012 09:29 (спустя 10 часов)

[Q] 

Мне не понравилось, двое орлов уехали не пойми куда и всех там перестриляли-рембы блин. фильм то когда то был о боксе :(

_________________
Мог стать отличным пианистом, а стал поскудным программистом
[Профиль]  [ЛС] 

madruscat

Лоцман

Пост 09-Фев-2012 21:35 (спустя 12 часов)

[Q] 

А смысл снимать Рокки в русской версии?
[Профиль]  [ЛС] 

Gvozdochet

Корсар

Пост 11-Фев-2012 02:17 (спустя 1 день 4 часа)

[Q] 

[Профиль]  [ЛС] 

jaytro

Морской Волк

Пост 11-Фев-2012 13:03 (спустя 10 часов)

[Q] 

Супер!!!!
[Профиль]  [ЛС] 

kaloev

Шкипер

55

Пост 12-Фев-2012 23:19 (спустя 1 день 10 часов)

[Q] 

Не я вот на счет бокса соглашусь)но фильм реально крутой мне очень понравился)Тут и Бату засветился)
[Профиль]  [ЛС] 

KOT

Корсар

363

Пост 13-Фев-2012 00:34 (спустя 1 час 15 минут)

[Q] 

Мне не понравилось, двое орлов уехали не пойми куда и всех там перестриляли-рембы блин. фильм то когда то был о боксе :(
Полностью согласен

_________________
[Профиль]  [ЛС] 

Пост 20-Фев-2012 10:57 (спустя 7 дней)

Топик был перенесен из форума Новинки (HD|DVD|BD|TV|SAT|PDTV| - Rips) в форум Российские фильмы

Skinwalker
 

SaNyABA89

Морской Волк

Пост 26-Фев-2012 14:51 (спустя 13 дней)

[Q] 

спасибо, классный фильм, но Панин бессмертный)

_________________
Талантам нужно помогать, бездарности пробьются сами!
[Профиль]  [ЛС] 

CHARLI2236

1097

Пост 25-Июл-2013 19:09 (спустя 1 год 4 месяца)

[Q] 

7

_________________
[Профиль]  [ЛС] 
Показать сообщения:    
Ответить на тему

Текущее время: Сегодня 01:14

Часовой пояс: GMT + 4



Вы не можете начинать темы
Вы не можете отвечать на сообщения
Вы не можете редактировать свои сообщения
Вы не можете удалять свои сообщения
Вы не можете голосовать в опросах
Вы не можете прикреплять файлы к сообщениям
Вы не можете скачивать файлы

▼ Вниз