ML
     
  Уважаемый Гость!
Вы можете поддержать проект и зарегистрироваться у наших партнеров - онлайн-стратегия MyLands. При регистрации в игре Вы получите код, который сможете активировать после регистрации на pirat.ca и получить 1000 дублонов.

Ваш код:
bb0cb47ee786a33f751af5a500dd264c9487bfac
 
     

Большая любовь (Дмитрий Фикс) [2006 г., Лирическая комедия, DVDRip]

Ответить на тему
 
Автор
Сообщение

Пост 02-Ноя-2016 19:23

[Q] 

somik

Легенда

-Большая любовь-- Производство: Россия, "Мотор"
Режиссер: Дмитрий Фикс
Жанр: Лирическая комедия
Год выпуска: 2006 г.
Продолжительность: 01:33:59
Российская премьера: 16 февраля 2006, «Наше Кино»
Дата выхода DVD: 7 марта 2006, «Вокс Видео»
В ролях: Михаил Пореченков, Юлия Меньшова, Инна Макарова, Анатолий Васильев, Жанна Эппле, Олег Долин, Ольга Добрина, Геннадий Митник, Анна Уколова, Игорь Арташонов и др.-Описание: Начало шестидесятых годов. Бравый генерал, убежденный холостяк и отчаянный бабник Антон Улыбабов получает приказ жениться в течение двух недель — в противном случае ему грозит увольнение из армии. В процессе отчаянных поисков невесты генерал впервые в жизни по-настоящему влюбляется…-Сэмпл КиноПоиск
Качество видео: DVDRip
Контейнер: AVI
Видео кодек: XviD
Аудио кодек: AC3
Видео: 704x528 (1.33:1), 25 fps, XviD build 50 ~1533 kbps avg, 0.17 bit/pixel
Аудио: 48 kHz, AC3 Dolby Digital, 3/2 (L,C,R,l,r) + LFE ch, ~448 kbps
Cубтитры: отсутствуют
Ретро-романтика
Добрая и романтичная комедия.
Добросовестный вояка, холостой орёл-мужчина и генерал-рубака служит Родине на совесть, а в свободное от службы время старается взять от жизни всё — гулянки-пьянки и огромное множество доверчивых особ слабого пола, не способных устоять перед чарами этого обаятельного воина в исполнении Михаила Пореченкова, который здесь на 100% на своём месте. Заботливая маман главного героя (несравненная Инна Макарова), встревоженная этим «фестивалем распутства» своего неуёмного сынули, затевает некую интригу, в ходе которой генерала-гуляку ставят перед выбором: либо он женится, либо его отправляют в отставку. Генерал-повеса, будучи в полном отчаянии от такого поворота его жизни, летит в Москву, в полёте туда он встречает свою настоящую любовь (Юлия Меньшова), соединиться с которой, однако, ему будет очень непросто. Но в итоге вся эта трогательная история заканчивается самым счастливым образом.
Замечательно подобраны актёры для исполнения как главных ролей, так и ролей второго и третьего плана. Очень выдержан весь советский «антураж» 60-х годов.
Этот фильм дарит хорошее настроение спокойным и размеренным вечером.
9 из 10
Общее
Полное имя : J:\Большая любовь (2006)\Большая любовь.2006.DVDRip.[pirat.ca].avi
Формат : AVI
Формат/Информация : Audio Video Interleave
Размер файла : 1,31 Гбайт
Продолжительность : 1 ч. 33 м.
Общий поток : 1988 Кбит/сек
Программа кодирования : VirtualDubMod 1.5.4.1 (build 2178/release)
Библиотека кодирования : VirtualDubMod build 2178/release
Видео
Идентификатор : 0
Формат : MPEG-4 Visual
Профиль формата : Advanced [email protected]
Параметр BVOP формата : 1
Параметр QPel формата : Нет
Параметр GMC формата : Без точки перехода
Параметр матрицы формата : Выборочная
Идентификатор кодека : XVID
Идентификатор кодека/Подсказка : XviD
Продолжительность : 1 ч. 33 м.
Битрейт : 1534 Кбит/сек
Ширина : 704 пикселя
Высота : 528 пикселей
Соотношение сторон : 4:3
Частота кадров : 25,000 кадров/сек
Цветовое пространство : YUV
Субдискретизация насыщенности : 4:2:0
Битовая глубина : 8 бит
Тип развёртки : Прогрессивная
Метод сжатия : С потерями
Бит/(Пиксели*Кадры) : 0.165
Размер потока : 1,01 Гбайт (77%)
Библиотека кодирования : XviD 1.2.1 (UTC 2008-12-04)
Аудио
Идентификатор : 1
Формат : AC-3
Формат/Информация : Audio Coding 3
Расширение режима : CM (complete main)
Параметр Endianness формата : Big
Идентификатор кодека : 2000
Продолжительность : 1 ч. 33 м.
Вид битрейта : Постоянный
Битрейт : 448 Кбит/сек
Каналы : 6 каналов
Расположение каналов : Front: L C R, Side: L R, LFE
Частота : 48,0 КГц
Частота кадров : 31,250 кадров/сек (1536 spf)
Метод сжатия : С потерями
Размер потока : 301 Мбайт (23%)
Выравнивание : Разделение по промежуткам
Продолжительность промежутка : 96 мс. (2,40 видеокадра)
Время предзагрузки промежутка : 96 мс.
Язык : Russian
Download / Скачать

Хотите скачать бесплатно? Зарегистрируйтесь на сайте (ссылка на регистрацию). Pirat.ca - самый быстрый торрент трекер в рунете!

Как скачивать  ·   Что такое торрент  ·   Рейтинг и ограничения

Показать сообщения:    
Ответить на тему

Текущее время: Сегодня 02:22

Часовой пояс: GMT + 4



Вы не можете начинать темы
Вы не можете отвечать на сообщения
Вы не можете редактировать свои сообщения
Вы не можете удалять свои сообщения
Вы не можете голосовать в опросах
Вы не можете прикреплять файлы к сообщениям
Вы не можете скачивать файлы

▼ Вниз