ML
     
  Уважаемый Гость!
Вы можете поддержать проект и зарегистрироваться у наших партнеров - онлайн-стратегия MyLands. При регистрации в игре Вы получите код, который сможете активировать после регистрации на pirat.ca и получить 1000 дублонов.

Ваш код:
8b29d0f8cd61fe457e59e7df0aa1fab41a2b88b9
 
     

Любовь как несчастный случай (Александр Кананович) [2012 г., мелодрама, HDTVRip]

Ответить на тему
 
Автор
Сообщение

Пост 02-Ноя-2016 19:53

[Q] 

somik

Легенда

-Любовь как несчастный случай-- Производство: Россия, "Медиапрофсоюз"
Режиссер: Александр Кананович
Жанр: мелодрама
Год выпуска: 2012 г.
Продолжительность: 03:02:24
Российская премьера: 20 октября 2012
В ролях: Анна Миклош, Андрей Биланов, Андрей Финягин, Ольга Бурлакова, Иван Мацкевич, Сергей Пукита, Павел Бедевкин, Евгений Никитин, Александр Абрамович, Андрей Карако, Антон Старовойтов, Владимир Мищанчук, Андрей Олиференко-Описание: Современная молодая женщина-хирург решает провести отпуск вместе со своим парнем, которого отправляют в командировку в маленький районный центр Восточной Сибири. На далёком лесном кордоне не может разродиться жена лесника, и столичная девушка отправляется в опасное путешествие на «кукурузнике» местного летчика. В избе лесника, на обеденном столе героиня при помощи подручных средств делает кесарево сечение и спасает роженицу и ее ребенка.
Обратный путь полон опасных приключений. За несколько сумасшедших дней, проведенных при экстремальных обстоятельствах, героиня и местный лётчик понимают, что безнадежно влюблены. Поначалу герои воспринимают свою любовь, как несчастный случай, — ведь они существа из разных миров, и наверняка никогда не смогут быть вместе. Но для настоящего, глубокого чувства не существует преград и границ.-Сэмпл КиноПоиск
Качество видео: HDTVRip
Контейнер: AVI
Видео кодек: XviD
Аудио кодек: AC3
Видео: 720x400 (1.80:1), 25 fps, XviD build 64 ~2042 kbps avg, 0.28 bit/pixel
Аудио: 48 kHz, AC3 Dolby Digital, 2/0 (L,R) ch, ~192 kbps
Cубтитры: отсутствуют
Общее
Полное имя : J:\Любовь как несчастный случай Тайга [01-02 из 02] (2012)\Любовь как несчастный случай.2012.HDTVRip.[pirat.ca]\1 серия.avi
Формат : AVI
Формат/Информация : Audio Video Interleave
Размер файла : 1,36 Гбайт
Продолжительность : 1 ч. 26 м.
Общий поток : 2244 Кбит/сек
Библиотека кодирования : VirtualDub build 32507/release
Видео
Идентификатор : 0
Формат : MPEG-4 Visual
Профиль формата : Advanced [email protected]
Параметр BVOP формата : 2
Параметр QPel формата : Нет
Параметр GMC формата : Без точки перехода
Параметр матрицы формата : Default (H.263)
Идентификатор кодека : XVID
Идентификатор кодека/Подсказка : XviD
Продолжительность : 1 ч. 26 м.
Битрейт : 2043 Кбит/сек
Ширина : 720 пикселей
Высота : 400 пикселей
Соотношение сторон : 16:9
Частота кадров : 25,000 кадров/сек
Цветовое пространство : YUV
Субдискретизация насыщенности : 4:2:0
Битовая глубина : 8 бит
Тип развёртки : Прогрессивная
Метод сжатия : С потерями
Бит/(Пиксели*Кадры) : 0.284
Размер потока : 1,24 Гбайт (91%)
Библиотека кодирования : XviD 64
Аудио
Идентификатор : 1
Формат : AC-3
Формат/Информация : Audio Coding 3
Расширение режима : CM (complete main)
Параметр Endianness формата : Big
Идентификатор кодека : 2000
Продолжительность : 1 ч. 26 м.
Вид битрейта : Постоянный
Битрейт : 192 Кбит/сек
Каналы : 2 канала
Расположение каналов : Front: L R
Частота : 48,0 КГц
Частота кадров : 31,250 кадров/сек (1536 spf)
Битовая глубина : 16 бит
Метод сжатия : С потерями
Размер потока : 119 Мбайт (9%)
Выравнивание : Разделение по промежуткам
Продолжительность промежутка : 40 мс. (1,00 видеокадр)
Время предзагрузки промежутка : 500 мс.
Download / Скачать

Хотите скачать бесплатно? Зарегистрируйтесь на сайте (ссылка на регистрацию). Pirat.ca - самый быстрый торрент трекер в рунете!

Как скачивать  ·   Что такое торрент  ·   Рейтинг и ограничения

Показать сообщения:    
Ответить на тему

Текущее время: Сегодня 21:20

Часовой пояс: GMT + 4



Вы не можете начинать темы
Вы не можете отвечать на сообщения
Вы не можете редактировать свои сообщения
Вы не можете удалять свои сообщения
Вы не можете голосовать в опросах
Вы не можете прикреплять файлы к сообщениям
Вы не можете скачивать файлы

▼ Вниз