ML
     
  Уважаемый Гость!
Вы можете поддержать проект и зарегистрироваться у наших партнеров - онлайн-стратегия MyLands. При регистрации в игре Вы получите код, который сможете активировать после регистрации на pirat.ca и получить 1000 дублонов.

Ваш код:
156f85568ae63e45e07ac461c96a83ba1a876b0a
 
     

Полное превращение (Филипп Коршунов) [2015 г., комедия, фантастика, WEB-DL, 720p]

Ответить на тему
 
Автор
Сообщение

Пост 17-Ноя-2016 17:12

[Q] 

somik

Легенда

-Полное превращение-- Производство: Россия, КАРО-Продакшн
Режиссер: Филипп Коршунов
Жанр: комедия, фантастика
Год выпуска: 2015 г.
Продолжительность: 01:23:44
Российская премьера: 19 марта 2015, «Каропрокат»
Дата выхода DVD: 19 мая 2015, «CD Land»
В ролях: Павел Абдалов, Виталий Кудрявцев, Александра Булычёва, Дмитрий Варшавский, Арина Постникова, Олег Гаас, Наиль Абдрахманов, Ирина Крутик, Сергей Николаев, Александр Наумов-Описание: Главный герой — незадачливый риелтор Дима, жизнь которого — одна сплошная проблема: с работой, с родителями, с девушками…. Он так устал от себя и хочет стать кем-то другим, что случай… предоставляет ему такую возможность. Из рук чудаковатого ученого Дима получает прибор Превращатель, способный превращать любого человека в кого угодно. Пытаясь исправить свои проблемы, Дима меняет обликами двенадцать разных персонажей, и вовлекается в водоворот комических ситуаций, когда сломавшийся прибор начинает совершать превращения по своей воле. Постоянно превращаясь, балансируя на грани разоблачения, Дима распутывает свои проблемы и находит самого себя — доброго, умного парня, который возвращает страсть охладевшим родителям, строит карьеру и находит любовь.-Сэмпл КиноПоиск
Качество видео: WEB-DL
Контейнер: MKV
Стандарт разрешения: 720p
Видео кодек: MPEG4 AVC
Аудио кодек: AC3
Видео: 3915 kb/s, 1280x532, 24,000 кадра/сек
Аудио: AC3, 384 kb/s (6 ch), 48,0 kHz
Cубтитры: отсутствуют
А мы все верим в чудеса
Не ожидала чего-то сверхъестественного от этого фильма, но он меня приятно удивил.
Думала, что это очередная бессмысленная, пошлая русская комедия. Но здесь все так по-доброму, так волшебно, так со вкусом.
Подборка российских фильмов последних лет говорит о том, что нам очень хочется поверить в чудо: «В ожидании чуда», «Любовь-морковь», «Хоттабыч», «Любовь в большом городе»… Везде есть добрый волшебник, который творит чудеса и меняет нас и окружающих людей к лучшему. Так и в этой комедии.
Сюжет в общем-то похож чем-то на перечисленные фильмы: волшебник (в данном случае немножко чокнутый ученый) помогает главному герою добиться успеха и наладить свою жизнь, однако вдруг все начинает идти не так: превращатель ломается и начинает жить своей жизнью. Вот только сила русского человека в том, что еще со времен Иванушки-дурачка мы, надеясь на лучшее, все-таки прикладываем свои усилия, чтобы измениться, учимся на своих ошибках. Вот и Дима Шахматов все-таки догадался, что не превращатель поможет ему продавать квартиры, а самообразование, чтение умных книжек, что не внешность директора крутой фирмы и волшебство, а правда и искренние чувства помогут завоевать любовь прекрасной девушки.
Понравилось, что эта комедия очень легкая, ненавязчивая, без намека на пошлость! Юмор в ней добрый, никого не обижающий. Постоянно хочется улыбаться и радоваться. Особенно, когда на экране бабушка-силач;)
Рекомендую к просмотру тем, кто хочет отдохнуть и развлечься, за наивность и доброту
9 из 10
Общее
Уникальный идентификатор : 199191749809329069434653892902787321540 (0x95DAEF81130640D2B236F12889718EC4)
Полное имя : J:\Полное превращение (2015) WEB-DL 720p iTunes\Polnoe Prevraschenie.2015.O.WEB-DL.720p.[pirat.ca].mkv
Формат : Matroska
Версия формата : Version 2
Размер файла : 2,57 Гбайт
Продолжительность : 1 ч. 23 м.
Общий поток : 4387 Кбит/сек
Дата кодирования : UTC 2015-06-09 05:34:14
Программа кодирования : mkvmerge v7.9.0 ('Birds') 64bit
Библиотека кодирования : libebml v1.3.1 + libmatroska v1.4.2
Видео
Идентификатор : 1
Формат : AVC
Формат/Информация : Advanced Video Codec
Профиль формата : [email protected]
Параметр CABAC формата : Да
Параметр ReFrames формата : 4 кадра
Идентификатор кодека : V_MPEG4/ISO/AVC
Продолжительность : 1 ч. 23 м.
Битрейт : 4001 Кбит/сек
Ширина : 1280 пикселей
Высота : 532 пикселя
Соотношение сторон : 2,40:1
Режим частоты кадров : Постоянный
Частота кадров : 24,000 кадра/сек
Цветовое пространство : YUV
Субдискретизация насыщенности : 4:2:0
Битовая глубина : 8 бит
Тип развёртки : Прогрессивная
Бит/(Пиксели*Кадры) : 0.245
Размер потока : 2,34 Гбайт (91%)
Default : Да
Forced : Нет
Аудио
Идентификатор : 2
Формат : AC-3
Формат/Информация : Audio Coding 3
Расширение режима : CM (complete main)
Параметр Endianness формата : Big
Идентификатор кодека : A_AC3
Продолжительность : 1 ч. 23 м.
Вид битрейта : Постоянный
Битрейт : 384 Кбит/сек
Каналы : 6 каналов
Расположение каналов : Front: L C R, Side: L R, LFE
Частота : 48,0 КГц
Частота кадров : 31,250 кадров/сек (1536 spf)
Метод сжатия : С потерями
Размер потока : 230 Мбайт (9%)
Язык : Russian
Default : Да
Forced : Нет
Меню
00:00:00.000 : en:1
00:04:02.000 : en:2
00:09:30.000 : en:3
00:14:10.000 : en:4
00:20:16.000 : en:5
00:25:56.000 : en:6
00:30:37.000 : en:7
00:34:58.000 : en:8
00:39:12.000 : en:9
00:44:24.000 : en:10
00:48:42.000 : en:11
00:55:37.000 : en:12
01:00:40.000 : en:13
01:08:04.000 : en:14
01:14:57.000 : en:15
01:20:15.000 : en:16
Download / Скачать

Хотите скачать бесплатно? Зарегистрируйтесь на сайте (ссылка на регистрацию). Pirat.ca - самый быстрый торрент трекер в рунете!

Как скачивать  ·   Что такое торрент  ·   Рейтинг и ограничения

proh2000

Шкипер

Пост 23-Ноя-2016 18:00 (спустя 6 дней)

[Q] 

Классное кино всем смотреть
[Профиль]  [ЛС] 
Показать сообщения:    
Ответить на тему

Текущее время: Сегодня 22:00

Часовой пояс: GMT + 4



Вы не можете начинать темы
Вы не можете отвечать на сообщения
Вы не можете редактировать свои сообщения
Вы не можете удалять свои сообщения
Вы не можете голосовать в опросах
Вы не можете прикреплять файлы к сообщениям
Вы не можете скачивать файлы

▼ Вниз