ML
     
  Уважаемый Гость!
Вы можете поддержать проект и зарегистрироваться у наших партнеров - онлайн-стратегия MyLands. При регистрации в игре Вы получите код, который сможете активировать после регистрации на pirat.ca и получить 1000 дублонов.

Ваш код:
156f85568ae63e45e07ac461c96a83ba1a876b0a
 
     

Ярослав. Тысячу лет назад (Дмитрий Коробкин) [2010 г., приключения, история, BDRip, 720p] Лицензия

Ответить на тему
 
Автор
Сообщение

Пост 20-Ноя-2016 09:55

[Q] 

somik

Легенда

-Ярослав. Тысячу лет назад-- Производство: Россия, Anno Domini Company
Режиссер: Дмитрий Коробкин
Жанр: приключения, история
Год выпуска: 2010 г.
Продолжительность: 01:43:27
Российская премьера: 14 октября 2010
Дата выхода DVD: 10 ноября 2010, «CD Land»
Дата выхода Blu-Ray: 16 декабря 2010, «Флагман-Трейд»-В ролях: Александр Ивашкевич, Алексей Кравченко, Светлана Чуйкина, Валерий Золотухин, Виктор Вержбицкий, Елена Плаксина, Борис Токарев, Владимир Антоник, Юрий Ваксман, Павел Хрулев-Описание: Киевская Русь, начало второго тысячелетия. Ростовские земли полыхают от межплеменных войн. В лесах, по дорогам и рекам хозяйничают разбойничьи ватаги. Разбойники продают людей Хазарам, которые сплавляют рабов в низовья Волги для перепродажи. Чтобы остановить работорговлю молодому Князю Ярославу предстоит объединить земли и народы Ростова. Победить врага можно только преодолев предубеждения и остановив религиозные и этнические конфликты внутри княжества. На месте уничтоженного разбойничьего логова Ярослав основывает город, который позже люди назовут его именем.-Сэмпл КиноПоиск
Качество видео: BDRip
Контейнер: MKV
Стандарт разрешения: 720p
Видео кодек: MPEG4 AVC
Аудио кодек: AC3
Видео: 4886 Kbps, 1280x544, 23,976 fps
Аудио: AC3, 640 kb/s (6 ch), 48,0 kHz
Cубтитры: отсутствуют
Фильм снят к 1000-летию города Ярославля.
Я за Святозара!
На мой взгляд, фильм вышел очень даже не плохой! А можно сказать и хорошей. Все исторические мотивы, если можно так выразится, соблюдены. Актерский состав отличный. Игра так же замечательная.
Многие говорят, что фильм получился как «Царь». Много наврали и много жестокости, но по моему ничего подобного. Все сцены насилия себя оправдывают и ничего чрезмерного не было. А то что любят поругать религиозность… То надо сказать они не переборщили. Там же не на каждом шагу молятся! А в то время люби по настоящему верили в Бога и я Вам скажу не стоит над этим издеваться. Или порадоваться за них надо или пройти мимо.
Так же и все любовные линии оправданы и смотрятся идеально. Вот только слеза берет от страданий Святозара!.. За это Виктору Вержбицкому отдельное и сердечное спасибо!
И мое решение: фильм стоит того, что бы потратить на него свое время и проникнуться переживаниями героем. Не все же на вампиров, да боевики смотреть.
10 из 10
Общее
Уникальный идентификатор : 195341607704316504070101807978109838997 (0x92F56CD7B1FDC188BDF7ED3F9EE1A695)
Полное имя : F:\Ярослав. Тысячу лет назад (2010) BDRip 720p\Jaroslav.Tysjachu let nazad.2010.BDRip.720p.[pirat.ca].mkv
Формат : Matroska
Версия формата : Version 2
Размер файла : 3,99 Гбайт
Продолжительность : 1 ч. 43 м.
Общий поток : 5509 Кбит/сек
Дата кодирования : UTC 2011-01-09 14:44:34
Программа кодирования : mkvmerge v4.0.0 ('The Stars were mine') сборка от Jun 11 2010 23:24:27
Библиотека кодирования : libebml v1.0.0 + libmatroska v1.0.0
Видео
Идентификатор : 1
Формат : AVC
Формат/Информация : Advanced Video Codec
Профиль формата : [email protected]
Параметр CABAC формата : Да
Параметр ReFrames формата : 8 кадров
Идентификатор кодека : V_MPEG4/ISO/AVC
Продолжительность : 1 ч. 43 м.
Битрейт : 4886 Кбит/сек
Ширина : 1280 пикселей
Высота : 544 пикселя
Соотношение сторон : 2,35:1
Режим частоты кадров : Постоянный
Частота кадров : 23,976 (24000/1001) кадра/сек
Цветовое пространство : YUV
Субдискретизация насыщенности : 4:2:0
Битовая глубина : 8 бит
Тип развёртки : Прогрессивная
Бит/(Пиксели*Кадры) : 0.293
Размер потока : 3,45 Гбайт (86%)
Библиотека кодирования : x264 core 110 r1804 e89c4cf
Настройки программы : cabac=1 / ref=8 / deblock=1:-1:-1 / analyse=0x3:0x133 / me=umh / subme=9 / psy=1 / psy_rd=1.00:0.10 / mixed_ref=1 / me_range=16 / chroma_me=1 / trellis=2 / 8x8dct=1 / cqm=0 / deadzone=21,11 / fast_pskip=0 / chroma_qp_offset=-3 / threads=12 / sliced_threads=0 / nr=0 / decimate=1 / interlaced=0 / constrained_intra=0 / bframes=3 / b_pyramid=2 / b_adapt=2 / b_bias=0 / direct=3 / weightb=1 / open_gop=0 / weightp=2 / keyint=250 / keyint_min=23 / scenecut=40 / intra_refresh=0 / rc_lookahead=50 / rc=2pass / mbtree=1 / bitrate=4886 / ratetol=1.0 / qcomp=0.60 / qpmin=0 / qpmax=51 / qpstep=4 / cplxblur=20.0 / qblur=0.5 / ip_ratio=1.40 / aq=1:1.00
Default : Нет
Forced : Нет
Аудио
Идентификатор : 2
Формат : AC-3
Формат/Информация : Audio Coding 3
Расширение режима : CM (complete main)
Параметр Endianness формата : Big
Идентификатор кодека : A_AC3
Продолжительность : 1 ч. 43 м.
Вид битрейта : Постоянный
Битрейт : 640 Кбит/сек
Каналы : 6 каналов
Расположение каналов : Front: L C R, Side: L R, LFE
Частота : 48,0 КГц
Частота кадров : 31,250 кадров/сек (1536 spf)
Метод сжатия : С потерями
Размер потока : 475 Мбайт (12%)
Язык : Russian
Default : Да
Forced : Нет
Download / Скачать

Хотите скачать бесплатно? Зарегистрируйтесь на сайте (ссылка на регистрацию). Pirat.ca - самый быстрый торрент трекер в рунете!

Как скачивать  ·   Что такое торрент  ·   Рейтинг и ограничения

Показать сообщения:    
Ответить на тему

Текущее время: Сегодня 21:58

Часовой пояс: GMT + 4



Вы не можете начинать темы
Вы не можете отвечать на сообщения
Вы не можете редактировать свои сообщения
Вы не можете удалять свои сообщения
Вы не можете голосовать в опросах
Вы не можете прикреплять файлы к сообщениям
Вы не можете скачивать файлы

▼ Вниз