ML
     
  Уважаемый Гость!
Вы можете поддержать проект и зарегистрироваться у наших партнеров - онлайн-стратегия MyLands. При регистрации в игре Вы получите код, который сможете активировать после регистрации на pirat.ca и получить 1000 дублонов.

Ваш код:
69f316be79867e9bf99caee9682d20bb11964507
 
     

Ярослав. Тысячу лет назад (Дмитрий Коробкин) [2010 г., приключения, история, BDRip] Лицензия

Ответить на тему
 
Автор
Сообщение

Пост 20-Ноя-2016 10:29

[Q] 

somik

Легенда

-Ярослав. Тысячу лет назад-- Производство: Россия, Anno Domini Company
Режиссер: Дмитрий Коробкин
Жанр: приключения, история
Год выпуска: 2010 г.
Продолжительность: 01:43:27
Российская премьера: 14 октября 2010
Дата выхода DVD: 10 ноября 2010, «CD Land»
Дата выхода Blu-Ray: 16 декабря 2010, «Флагман-Трейд»-В ролях: Александр Ивашкевич, Алексей Кравченко, Светлана Чуйкина, Валерий Золотухин, Виктор Вержбицкий, Елена Плаксина, Борис Токарев, Владимир Антоник, Юрий Ваксман, Павел Хрулев-Описание: Киевская Русь, начало второго тысячелетия. Ростовские земли полыхают от межплеменных войн. В лесах, по дорогам и рекам хозяйничают разбойничьи ватаги. Разбойники продают людей Хазарам, которые сплавляют рабов в низовья Волги для перепродажи.
Чтобы остановить работорговлю молодому Князю Ярославу предстоит объединить земли и народы Ростова. Победить врага можно только преодолев предубеждения и остановив религиозные и этнические конфликты внутри княжества.
На месте уничтоженного разбойничьего логова Ярослав основывает город, который позже люди назовут его именем.-Сэмпл КиноПоиск
Качество видео: BDRip
Контейнер: AVI
Видео кодек: XviD
Аудио кодек: AC3
Видео: 720x304 (2.37:1), 23.976 fps, XviD build 57 ~2238 kbps avg, 0.43 bit/pixel
Аудио: 48 kHz, AC3 Dolby Digital, 3/2 (L,C,R,l,r) + LFE ch, ~448 kbps
Cубтитры: отсутствуют
Фильм снят к 1000-летию города Ярославля.
Ярослав Мудрый, но не сразу
Есть фильмы хорошие, есть плохие, а есть фильмы о историческом отрезке твоей Родины, и отрезке не абы каком, а самом раннем, с мечами, луками и необъятными лесами. Нормальный мужчина, еще не забывший вес деревянного меча в своей детской руке и просторы ближайшей лесополосы, после единственного просмотра трейлера, знает — нужно смотреть и как можно скорее.
А теперь о просмотре:
Фильм длится 99 мин, из них первые минут 60 скучноваты. Нет, нет, сходить в буфет или покурить, мыслей не возникает, но всё это время душа рвется на части между восторгом и досадой.
Восторг: красивые пейзажи, срубленный Ростов, прекрасная одежда XI века, отличные актеры (красивый варяг, колоритные воеводы (которых я такими и представлял основываясь на литературе о Руси княжеской), дед Чурила).
Досада: блин, опять эти любовные линии в историческом кино!, отсутствие крови при битвах на мечах и лишняя при попадании в ловушки (но за ловушки спасибо).
Во время этих минут думал, что фильм хорош, но не 10 баллов конечно, максимум 7.
Но потом началось..
Началось настоящее действо, я про момент с начала подготовки атаки на медведей и до начала титров. Рот приоткрылся, все мои теории о предателях рассыпались в прах (но жена угадала, хотя я её легко и быстро переубедил) и фильм раскрыл свой потенциал. Как будто режиссер понял, что не успевает уложиться в 100 минут и оставил самое ценное в сценарии, а мы этого весь фильм и ждали. В общем смотрите и не пожалеете.
Фильм удался, режиссеру, актерам и всему персоналу огромное спасибо за красивое кино и погружение в историю Руси.
9 из 10
Общее
Полное имя : F:\Ярослав. Тысячу лет назад (2010) BDRip 720p\Jaroslav.Tysjachu let nazad.2010.BDRip.[pirat.ca].avi
Формат : AVI
Формат/Информация : Audio Video Interleave
Размер файла : 1,95 Гбайт
Продолжительность : 1 ч. 43 м.
Общий поток : 2696 Кбит/сек
Программа кодирования : VirtualDubMod 1.5.10.2 (build 2542/release)
Видео
Идентификатор : 0
Формат : MPEG-4 Visual
Профиль формата : Advanced [email protected]
Параметр BVOP формата : 1
Параметр QPel формата : Нет
Параметр GMC формата : Без точки перехода
Параметр матрицы формата : Выборочная
Идентификатор кодека : XVID
Идентификатор кодека/Подсказка : XviD
Продолжительность : 1 ч. 43 м.
Битрейт : 2239 Кбит/сек
Ширина : 720 пикселей
Высота : 304 пикселя
Соотношение сторон : 2,35:1
Частота кадров : 23,976 (23976/1000) кадра/сек
Цветовое пространство : YUV
Субдискретизация насыщенности : 4:2:0
Битовая глубина : 8 бит
Тип развёртки : Прогрессивная
Метод сжатия : С потерями
Бит/(Пиксели*Кадры) : 0.427
Размер потока : 1,62 Гбайт (83%)
Библиотека кодирования : XviD 57
Аудио
Идентификатор : 1
Формат : AC-3
Формат/Информация : Audio Coding 3
Расширение режима : CM (complete main)
Параметр Endianness формата : Big
Идентификатор кодека : 2000
Продолжительность : 1 ч. 43 м.
Вид битрейта : Постоянный
Битрейт : 448 Кбит/сек
Каналы : 6 каналов
Расположение каналов : Front: L C R, Side: L R, LFE
Частота : 48,0 КГц
Частота кадров : 31,250 кадров/сек (1536 spf)
Метод сжатия : С потерями
Размер потока : 331 Мбайт (17%)
Выравнивание : Разделение по промежуткам
Продолжительность промежутка : 42 мс. (1,00 видеокадр)
Время предзагрузки промежутка : 500 мс.
Download / Скачать

Хотите скачать бесплатно? Зарегистрируйтесь на сайте (ссылка на регистрацию). Pirat.ca - самый быстрый торрент трекер в рунете!

Как скачивать  ·   Что такое торрент  ·   Рейтинг и ограничения

Показать сообщения:    
Ответить на тему

Текущее время: Сегодня 14:34

Часовой пояс: GMT + 4



Вы не можете начинать темы
Вы не можете отвечать на сообщения
Вы не можете редактировать свои сообщения
Вы не можете удалять свои сообщения
Вы не можете голосовать в опросах
Вы не можете прикреплять файлы к сообщениям
Вы не можете скачивать файлы

▼ Вниз