ML
     
  Уважаемый Гость!
Вы можете поддержать проект и зарегистрироваться у наших партнеров - онлайн-стратегия MyLands. При регистрации в игре Вы получите код, который сможете активировать после регистрации на pirat.ca и получить 1000 дублонов.

Ваш код:
062e2babcc491faeb40d496cf9a498ac3df6cdd0
 
     

Пушкин: Последняя дуэль (Наталья Бондарчук) [2006 г., драма, биография, история, DVDRip]

Ответить на тему
 
Автор
Сообщение

Пост 25-Ноя-2016 16:50

[Q] 

somik

Легенда

-Пушкин: Последняя дуэль-- Производство: Россия, Золотой Век
Режиссер: Наталья Бондарчук
Жанр: драма, биография, история
Год выпуска: 2006 г.
Продолжительность: 01:46:38
Российская премьера: 18 ноября 2006
Дата выхода DVD: 5 декабря 2006, «Монолит»
В ролях: Сергей Безруков, Анна Снаткина, Юлиан Макаров, Борис Плотников, Евгений Стычкин, Виктор Сухоруков, Сергей Ражук, Роман Романцов, Инна Макарова, Андрей Ильин, Сергей Никоненко, Георгий Траугот-Описание: 27 января на Черной речке состоялась дуэль между Александром Сергеевичем Пушкиным и Жоржем Дантесом, исход которой оказался смертельным для поэта. Светские сплетни и интриги обострили обстановку вокруг семьи Пушкина. Апогеем этой войны в высшем обществе Петербурга стала серия анонимных писем, порочащих имя Натальи Николаевны Пушкиной.
Даже друзья поэта были втянуты в грязные сети заговора. Узнав о содержании анонимок, император Николай I усмотрел в них не только оскорбление семьи Пушкиных, но и клевету на царское семейство. Секретное дело император поручает вести начальнику корпуса жандармов тайной канцелярии сыска Дубельту.
Третьему отделению удается узнать многое: в каких отношениях состояла жена поэта с его убийцей и кто являлся возможным автором анонимок, но… только частное расследование полковника Галахова продвинулось в истинном понимании причин гибели Пушкина, ставшей впоследствии общенациональной трагедией.-Сэмпл КиноПоиск
Качество видео: DVDRip
Контейнер: AVI
Видео кодек: XviD
Аудио кодек: AC3
Видео: 720x392 (1.84:1), 25 fps, XviD build 64 ~1886 kbps avg, 0.27 bit/pixel
Аудио: 48 kHz, AC3 Dolby Digital, 3/2 (L,C,R,l,r) ch, ~448 kbps
Cубтитры: отсутствуют
Чтобы там не говорили, а фильм получился на славу! Отлично сыграна роль А. С. Пушкина — Сергеем Безруковым, потрясающе он сумел вжиться в образ Пушкина, всё получилось у него блестяще, одни его прочитанные стихи в душе раздирающем музыкальном сопровождении, у памятника Петра I в Петербурге чего только стоят! Уж больно меня этот момент в фильме зацепил, эти стихи из поэмы «Медный всадник» — задевают за самое живое! И Безруков читает эти стихи в такой же похожей манере, как и в фильме — Есенин, с ним же в главной роли.
Единственное, что, на мой взгляд, не удалось в этом фильме, так это правильно наложить грим Безрукову, с причёской там ещё как-то похоже получилось, ну а с бакенбардами всё-таки нахимичили. Да, и нельзя не отметить смелую режиссёрскую работу — Натальи Бондарчук. Видно Наталья Бондарчук решила пойти по стопам своего отца и проделать творческую, добротную работу, и ей это удалось.
Режиссёр в этом фильме сумел всё-таки (как мне кажется) показать по-своему, как разворачивались события в заговорах против Александра Пушкина. Всё удачно показано, дуэль Пушкина и Дантеса — это вообще отдельный разговор, просто потрясающе всё сделано: сколько мужества, сколько страданий и переживаний, сама задумка дуэли — это порох, кровь и слёзы, чего там говорить, всё сделано чувственно и мастерски.
Образ Лермонтова достаточно неплохо сыгран, хотя могли и получше доработать в гриме, да и в образе тоже, мне всегда, например, Лермонтов казался чуть выше и стройней, нежели актёр Евгений Стычкин, сыгравший его; образ Жуковского тоже хорошо сделан, но в фильме сказано, что именно он не дал Пушкину уйти в отставку и уехать в деревню с семьёй и тем самым, подставив его под пулю на дуэли, что испортило уже представление обо всём этом; то же самое и с Вяземским, который отказал ему от дома.
Напоследок хотел бы похвалить ещё актёров Виктора Сухорукова, который сыграл хорошую, положительную роль — полковника Галахова, Бориса Плотникова — сыгравший Дубельта и Андрей Ильин — который сыграл Константина Данзаса, секунданта Пушкина. Да и музыка к этому фильму подобрана удачно — Моцарт, Глинка, арфа, где нужно очень здорово звучит.
10 из 10
Общее
Полное имя : J:\Пушкин. Последняя дуэль (2006)\Pushkin.Poslednjaja duelj.2006.DVDRip.[pirat.ca].avi
Формат : AVI
Формат/Информация : Audio Video Interleave
Размер файла : 1,75 Гбайт
Продолжительность : 1 ч. 46 м.
Общий поток : 2344 Кбит/сек
Программа кодирования : VirtualDubMod 1.5.10.3 | www.virtualdub-fr.org || (build 2550/release)
Видео
Идентификатор : 0
Формат : MPEG-4 Visual
Профиль формата : Advanced [email protected]
Параметр BVOP формата : 3
Параметр QPel формата : Нет
Параметр GMC формата : Без точки перехода
Параметр матрицы формата : Default (MPEG)
Идентификатор кодека : XVID
Идентификатор кодека/Подсказка : XviD
Продолжительность : 1 ч. 46 м.
Битрейт : 1887 Кбит/сек
Ширина : 720 пикселей
Высота : 392 пикселя
Соотношение сторон : 1,85:1
Частота кадров : 25,000 кадров/сек
Цветовое пространство : YUV
Субдискретизация насыщенности : 4:2:0
Битовая глубина : 8 бит
Тип развёртки : Прогрессивная
Метод сжатия : С потерями
Бит/(Пиксели*Кадры) : 0.267
Размер потока : 1,41 Гбайт (80%)
Библиотека кодирования : XviD 64
Аудио
Идентификатор : 1
Формат : AC-3
Формат/Информация : Audio Coding 3
Расширение режима : CM (complete main)
Параметр Endianness формата : Big
Идентификатор кодека : 2000
Продолжительность : 1 ч. 46 м.
Вид битрейта : Постоянный
Битрейт : 448 Кбит/сек
Каналы : 6 каналов
Channel(s)_Original : 5 каналов
Расположение каналов : Front: L C R, Side: L R
Частота : 48,0 КГц
Частота кадров : 31,250 кадров/сек (1536 spf)
Метод сжатия : С потерями
Размер потока : 341 Мбайт (19%)
Выравнивание : Разделение по промежуткам
Продолжительность промежутка : 40 мс. (1,00 видеокадр)
Время предзагрузки промежутка : 500 мс.
Download / Скачать

Хотите скачать бесплатно? Зарегистрируйтесь на сайте (ссылка на регистрацию). Pirat.ca - самый быстрый торрент трекер в рунете!

Как скачивать  ·   Что такое торрент  ·   Рейтинг и ограничения

Показать сообщения:    
Ответить на тему

Текущее время: Сегодня 17:44

Часовой пояс: GMT + 4



Вы не можете начинать темы
Вы не можете отвечать на сообщения
Вы не можете редактировать свои сообщения
Вы не можете удалять свои сообщения
Вы не можете голосовать в опросах
Вы не можете прикреплять файлы к сообщениям
Вы не можете скачивать файлы

▼ Вниз