ML
     
  Уважаемый Гость!
Вы можете поддержать проект и зарегистрироваться у наших партнеров - онлайн-стратегия MyLands. При регистрации в игре Вы получите код, который сможете активировать после регистрации на pirat.ca и получить 1000 дублонов.

Ваш код:
156f85568ae63e45e07ac461c96a83ba1a876b0a
 
     

Кадо (Вячеслав Корнев) [2010 г., Драма, мелодрама, DVDRip]

Ответить на тему
 
Автор
Сообщение

Пост 03-Фев-2012 22:35

[Q] 

Znoi

Флибустьер

-Кадо
--Год выпуска: 2010
Производство: Россия, ЛИКБЕЗ
Жанр: Драма, мелодрама
Продолжительность: 01:43:37--Режиссер: Вячеслав Корнев--В ролях: Андрей Кузькин, Анна Маркова Юлия Долженко, Леонид Вихрев, Руслан Долженко, Василий Сыроежкин, Анастасия Радцева, Александр Шкуров, Максим Попов, Алёна Воеводина, Дарья Якунина, Павел Бежацкий, Анна Качурина, Алексей Боровец, Яна Авдеева, Наталья Николенкова, Владимир Витвинчук, Игорь Власов--Описание: Одинокий, неприкаянный клерк каждое утро просыпается в декорациях тошнотворной повседневности: кровать в обшарпанной комнате, дежурная яичница на завтрак, кипы бумаг на службе в абсурдной конторе. Но однажды эта привычная жизнь идет наперекосяк.-- --Источник/Качество: DVDRip
Формат: AVI
Видео кодек: XviD
Аудио кодек: AC3
Видео: XviD, 1687 Кбит/с, 704x528 пикс, 25.000 кадр/сек
Аудио: АС3, 2 ch, 192 Кбит/с, 48,0 КГц
General
Complete name : D:\Kado.2010.XviD.DVDRip.[pirat.ca].avi
Format : AVI
Format/Info : Audio Video Interleave
File size : 1.37 GiB
Duration : 1h 43mn
Overall bit rate : 1 890 Kbps
Writing application : VirtualDubMod 1.5.10.2 (build 2540/release)
Video
ID : 0
Format : MPEG-4 Visual
Format profile : Advanced [email protected]
Format settings, BVOP : 2
Format settings, QPel : No
Format settings, GMC : No warppoints
Format settings, Matrix : Default (MPEG)
Codec ID : XVID
Codec ID/Hint : XviD
Duration : 1h 43mn
Bit rate : 1 688 Kbps
Width : 704 pixels
Height : 528 pixels
Display aspect ratio : 4:3
Frame rate : 25.000 fps
Color space : YUV
Chroma subsampling : 4:2:0
Bit depth : 8 bits
Scan type : Progressive
Compression mode : Lossy
Bits/(Pixel*Frame) : 0.182
Stream size : 1.22 GiB (89%)
Writing library : XviD 1.2.1 (UTC 2008-12-04)
Audio
ID : 1
Format : AC-3
Format/Info : Audio Coding 3
Mode extension : CM (complete main)
Codec ID : 2000
Duration : 1h 43mn
Bit rate mode : Constant
Bit rate : 192 Kbps
Channel(s) : 2 channels
Channel positions : Front: L R
Sampling rate : 48.0 KHz
Bit depth : 16 bits
Compression mode : Lossy
Stream size : 142 MiB (10%)
Alignment : Split accross interleaves
Interleave, duration : 40 ms (1.00 video frame)
Interleave, preload duration : 500 ms
Download / Скачать

Хотите скачать бесплатно? Зарегистрируйтесь на сайте (ссылка на регистрацию). Pirat.ca - самый быстрый торрент трекер в рунете!

Как скачивать  ·   Что такое торрент  ·   Рейтинг и ограничения

Пост 04-Фев-2012 10:37 (спустя 12 часов)

Топик был перенесен из форума Наше Кино в форум Российские фильмы

Skinwalker
 

lis777

Корсар

Пост 05-Фев-2012 00:35 (спустя 1 день 1 час)

[Q] 

[Профиль]  [ЛС] 
Показать сообщения:    
Ответить на тему

Текущее время: Сегодня 21:56

Часовой пояс: GMT + 4



Вы не можете начинать темы
Вы не можете отвечать на сообщения
Вы не можете редактировать свои сообщения
Вы не можете удалять свои сообщения
Вы не можете голосовать в опросах
Вы не можете прикреплять файлы к сообщениям
Вы не можете скачивать файлы

▼ Вниз