ML
     
  Уважаемый Гость!
Вы можете поддержать проект и зарегистрироваться у наших партнеров - онлайн-стратегия MyLands. При регистрации в игре Вы получите код, который сможете активировать после регистрации на pirat.ca и получить 1000 дублонов.

Ваш код:
156f85568ae63e45e07ac461c96a83ba1a876b0a
 
     

О чём ещё говорят мужчины (Дмитрий Дьяченко) [2011 г., комедия, BDRip-AVC]

Ответить на тему
 
Автор
Сообщение

Пост 08-Фев-2012 11:30

[Q] 

zyyx

--О чём ещё говорят мужчины-- Год выпуска: 2011
Мировая премьера: 29 декабря 2011
Российская премьера: 29 декабря 2011, «Централ Партнершип»
Дата выхода DVD: 26 января 2012, «Мистерия Звука»
Дата выхода Blu-Ray: 2 февраля 2012, «Мистерия Звука»
Страна: Россия
Жанр: комедия
Продолжительность: 01:38:28
Перевод: Не требуется [Лицензия]
Режиссер: Дмитрий Дьяченко
В ролях: Леонид Барац, Ростислав Хаит, Александр Демидов, Камиль Ларин, Алёна Бабенко, Екатерина Вилкова, Владимир Меньшов, Максим Виторган, Елена Подкаминская, Константин Чепурин, Михаил Ефремов, Виталий Хаев
Описание: Действие фильма происходит в Москве, 31 декабря, в офисе рекламного агентства, которым руководит Саша Демидов, и в квартире Камиля.
Источник/Качество: BDRip-AVC | Сэмпл
Формат: MKV
Видео кодек: H.264
Аудио кодек: AC3
Видео: 960x408 (2.35:1); 24,000 fps; 1738 kbps; 0.185 bit/pixel
Аудио: 48.0 KHz, 6 ch, 348 Kbps
Код:
General
Complete name                    : F:\movie\Govoryat.Muzhchiny.2.2011.O.BDRip.x264.potroks.mkv
Format                           : Matroska
File size                        : 1.46 GiB
Duration                         : 1h 38mn
Overall bit rate                 : 2 123 Kbps
Movie name                       : -=POTROKS=-
Encoded date                     : UTC 2012-02-08 00:30:40
Writing application              : mkvmerge v5.2.1 ('A Far Off Place') built on Feb  6 2012 10:08:15
Writing library                  : libebml v1.2.3 + libmatroska v1.3.0
Video
ID                               : 1
Format                           : AVC
Format/Info                      : Advanced Video Codec
Format profile                   : [email protected]
Format settings, CABAC           : Yes
Format settings, ReFrames        : 11 frames
Muxing mode                      : Container [email protected]
Codec ID                         : V_MPEG4/ISO/AVC
Duration                         : 1h 38mn
Bit rate                         : 1 697 Kbps
Nominal bit rate                 : 1 738 Kbps
Width                            : 960 pixels
Height                           : 408 pixels
Display aspect ratio             : 2.35:1
Frame rate mode                  : Variable
Frame rate                       : 24.000 fps
Resolution                       : 24 bits
Colorimetry                      : 4:2:0
Scan type                        : Progressive
Bits/(Pixel*Frame)               : 0.181
Stream size                      : 1.17 GiB (80%)
Title                            : Govoryat.Muzhchiny.2.2011.O.BDRip.x264.potroks
Writing library                  : x264 core 116 r2019M 9cc407d
Encoding settings                : cabac=1 / ref=12 / deblock=1:-2:-1 / analyse=0x3:0x133 / me=umh / subme=9 / psy=1 / psy_rd=1.00:0.00 / mixed_ref=1 / me_range=32 / chroma_me=1 / trellis=1 / 8x8dct=1 / cqm=0 / deadzone=21,11 / fast_pskip=0 / chroma_qp_offset=-2 / threads=8 / sliced_threads=0 / nr=0 / decimate=1 / interlaced=0 / bluray_compat=0 / constrained_intra=0 / bframes=8 / b_pyramid=1 / b_adapt=2 / b_bias=0 / direct=3 / weightb=1 / open_gop=0 / weightp=2 / keyint=240 / keyint_min=24 / scenecut=45 / intra_refresh=0 / rc_lookahead=40 / rc=2pass / mbtree=1 / bitrate=1738 / ratetol=1.0 / qcomp=0.60 / qpmin=10 / qpmax=51 / qpstep=4 / cplxblur=20.0 / qblur=0.5 / ip_ratio=1.40 / aq=1:1.20
Language                         : Russian
Audio
ID                               : 2
Format                           : AC-3
Format/Info                      : Audio Coding 3
Codec ID                         : A_AC3
Duration                         : 1h 38mn
Bit rate mode                    : Constant
Bit rate                         : 384 Kbps
Channel(s)                       : 6 channels
Channel positions                : Front: L C R, Surround: L R, LFE
Sampling rate                    : 48.0 KHz
Stream size                      : 270 MiB (18%)
Title                            : AC3, 5.1 ch., 384 kbps
Language                         : Russian
Download / Скачать

Хотите скачать бесплатно? Зарегистрируйтесь на сайте (ссылка на регистрацию). Pirat.ca - самый быстрый торрент трекер в рунете!

Как скачивать  ·   Что такое торрент  ·   Рейтинг и ограничения

Пост 08-Фев-2012 12:12 (спустя 41 минута)

Топик был перенесен из форума Наше Кино в форум Новинки (HD|DVD|BD|TV|SAT|PDTV| - Rips)

Skinwalker
 

berezeca

Корсар

Пост 08-Фев-2012 20:10 (спустя 8 часов)

[Q] 

Спасибо.
[Профиль]  [ЛС] 

yano4ka

Шкипер

Пост 08-Фев-2012 21:58 (спустя 1 час 48 минут)

[Q] 

[Профиль]  [ЛС] 

rapisyo

Морской Волк

Пост 09-Фев-2012 19:39 (спустя 21 час)

[Q] 

[Профиль]  [ЛС] 

Sergi4

Гроза морей

Пост 11-Фев-2012 09:55 (спустя 1 день 14 часов)

[Q] 

[Профиль]  [ЛС] 

nokia_series

Корсар

Пост 11-Фев-2012 10:03 (спустя 7 минут)

[Q] 

Хороший фильм, на разок ))) Всё равно первый был лучше.
[Профиль]  [ЛС] 

tarantul55

Штурман

4

Пост 11-Фев-2012 11:11 (спустя 1 час 8 минут)

[Q] 

[Профиль]  [ЛС] 

jaytro

Морской Волк

Пост 11-Фев-2012 13:00 (спустя 1 час 48 минут)

[Q] 

Норм тема, не хуже первой части, качайте!!!
[Профиль]  [ЛС] 

nikandro

Морской Волк

Пост 11-Фев-2012 13:14 (спустя 14 минут)

[Q] 

[Профиль]  [ЛС] 

pokermike299

Корсар

Пост 12-Фев-2012 22:06 (спустя 1 день 8 часов)

[Q] 

скачал но еще не смотрел
[Профиль]  [ЛС] 

KOT

Корсар

363

Пост 13-Фев-2012 00:31 (спустя 2 часа 24 минуты)

[Q] 


_________________
[Профиль]  [ЛС] 

Deadman7111983

Шкипер

71

Пост 13-Фев-2012 01:43 (спустя 1 час 12 минут)

[Q] 

[Профиль]  [ЛС] 

Пост 20-Фев-2012 10:57 (спустя 7 дней)

Топик был перенесен из форума Новинки (HD|DVD|BD|TV|SAT|PDTV| - Rips) в форум Российские фильмы

Skinwalker
 

ksg111ban

Гроза морей

Пост 04-Мар-2012 23:11 (спустя 20 дней)

[Q] 


_________________
[Профиль]  [ЛС] 

and28

Морской Волк

Пост 07-Мар-2012 01:54 (спустя 2 дня 2 часа)

[Q] 

[Профиль]  [ЛС] 

Фтещт

Корсар

61

Пост 15-Мар-2012 15:54 (спустя 8 дней)

[Q] 

[Профиль]  [ЛС] 

Blad100500

Шкипер

Пост 01-Дек-2012 21:32 (спустя 8 месяцев 17 дней)

[Q] 


_________________
Внимание. Ниже ссылка на twitch со стримами
Виктория стримит для вас
Ты не обязан переходить туда. Но ты можешь это сделать и передать привет с трекера
[Профиль]  [ЛС] 

exrei

Шкипер

161

Пост 03-Дек-2012 01:29 (спустя 1 день 3 часа)

[Q] 

Первая часть была намного интереснее и смешнее! В целом не плохо.
Спасибо раздающему

_________________
[Профиль]  [ЛС] 

demsan

Шкипер

Пост 23-Апр-2013 18:20 (спустя 4 месяца 20 дней)

[Q] 

[Профиль]  [ЛС] 

Nemetz

Корсар

Пост 24-Апр-2013 02:24 (спустя 8 часов)

[Q] 

275966Первая часть была намного интереснее и смешнее! В целом не плохо.
Спасибо раздающему
Как по мне почти равенство) Отличны обе части!
[Профиль]  [ЛС] 

Fettel

Морской Волк

Пост 28-Апр-2013 20:51 (спустя 4 дня)

[Q] 

[Профиль]  [ЛС] 

Nokia C3-00

Штурман

Пост 12-Июл-2014 15:44 (спустя 1 год 2 месяца)

[Q] 

Не плохой фильм, но не то пальто, первый понравился больше! На любителя Лови бочку
[Профиль]  [ЛС] 
Показать сообщения:    
Ответить на тему

Текущее время: Сегодня 21:57

Часовой пояс: GMT + 4



Вы не можете начинать темы
Вы не можете отвечать на сообщения
Вы не можете редактировать свои сообщения
Вы не можете удалять свои сообщения
Вы не можете голосовать в опросах
Вы не можете прикреплять файлы к сообщениям
Вы не можете скачивать файлы

▼ Вниз