ML
     
  Уважаемый Гость!
Вы можете поддержать проект и зарегистрироваться у наших партнеров - онлайн-стратегия MyLands. При регистрации в игре Вы получите код, который сможете активировать после регистрации на pirat.ca и получить 1000 дублонов.

Ваш код:
59354507ba913a0948d1a8f2e30f2e04c4cd7b9b
 
     

Реальная сказка (Андрей Мармонтов) [2011 г., фэнтези, драма, комедия, семейный, HDRip-AVC][internal release]

Ответить на тему
 
Автор
Сообщение

Пост 08-Фев-2012 12:41

[Q] 

zyyx

--Реальная сказка
«Надо просто верить»
-- Год выпуска: 2011
Мировая премьера: 3 ноября 2011
Российская премьера: 3 ноября 2011, «Централ Партнершип»
Дата выхода DVD: 8 декабря 2011, «Новый Диск»
Дата выхода Blu-Ray: 26 января 2012, «Новый Диск»
Страна: Россия
Жанр: фэнтези, драма, комедия, семейный
Продолжительность: 01:41:57
Перевод: Не требуется [Лицензия]
Режиссер: Андрей Мармонтов
В ролях: Сергей Безруков, Леонид Ярмольник, Максим Шибаев, Анастасия Добрынина, Ирина Безрукова, Георгий Штиль, Людмила Полякова, Анна Герман, Сергей Погосян, Антон Пампушный
Описание: Жили-были сестрица Олесенька и братец Саша… Нет, так не пойдет: кажется, прошла пора старых-добрых сказок. Даже сказочные персонажи, понимая это, переселились в наш мир: Василиса Премудрая стала учительницей, Леший — бомжом, Иван-дурак — ВДВшником, Кащей — олигархом. Злые дела творить он, конечно, не бросил. И главным его злодеянием стало то, что он лишил нас веры в чудо.
Люди стали эгоистичными, расчетливыми и прагматичными, что Кащею — как бальзам на душу. Только одно не дает ему спокойно спать: благодаря сказкам, каждый ребенок знает, где искать его смерть. И какой же он после этого бессмертный? Кащей идет на крайние меры и безжалостно уничтожает все страницы сказок, где описана его страшная тайна.
Маленькая девочка Олеся находит нетронутую старинную книгу сказок и, прочитав ее, вскоре… исчезает. Старший брат девочки, школьник Саша, бросается на поиски, рассчитывая на поддержку новых знакомых — Ивана-дурака и его жены Василисы, — но они, вопреки ожиданиям, не спешат помогать ему в его борьбе с Кащеем. Саша же готов пойти на все, чтобы вернуть сестренку и подарить миру веру в чудо.
Источник/Качество: HDRip-AVC | Сэмпл
Формат: MKV
Видео кодек: AVC
Аудио кодек: AC3
Видео: 1040x432, 25.00fps, 1667 Kbps
Аудио: 48 kHz, 6 ch, 384 kbps
General
Complete name : C:\Realnaj.Skazka.2011.HDRip-AVC.zyyx.mkv
Format : Matroska
File size : 1.46 GiB
Duration : 1h 41mn
Overall bit rate : 2 053 Kbps
Encoded date : UTC 2012-01-28 09:41:35
Writing application : mkvmerge v4.6.0 ('Still Crazy After All These Years') сборка от Mar 13 2011 18:33:29
Writing library : libebml v1.2.0 + libmatroska v1.1.0
Video
ID : 1
Format : AVC
Format/Info : Advanced Video Codec
Format profile : [email protected]
Format settings, CABAC : Yes
Format settings, ReFrames : 16 frames
Muxing mode : Container [email protected]
Codec ID : V_MPEG4/ISO/AVC
Duration : 1h 41mn
Bit rate : 1 628 Kbps
Nominal bit rate : 1 667 Kbps
Width : 1 040 pixels
Height : 432 pixels
Display aspect ratio : 2.40:1
Frame rate : 25.000 fps
Resolution : 24 bits
Colorimetry : 4:2:0
Scan type : Progressive
Bits/(Pixel*Frame) : 0.145
Stream size : 1.16 GiB (79%)
Writing library : x264 core 114 r1924 08d04a4
Audio
ID : 2
Format : AC-3
Format/Info : Audio Coding 3
Codec ID : A_AC3
Duration : 1h 41mn
Bit rate mode : Constant
Bit rate : 384 Kbps
Channel(s) : 6 channels
Channel positions : Front: L C R, Surround: L R, LFE
Sampling rate : 48.0 KHz
Stream size : 280 MiB (19%)
Download / Скачать

Хотите скачать бесплатно? Зарегистрируйтесь на сайте (ссылка на регистрацию). Pirat.ca - самый быстрый торрент трекер в рунете!

Как скачивать  ·   Что такое торрент  ·   Рейтинг и ограничения

Пост 08-Фев-2012 18:36 (спустя 5 часов)

Топик был перенесен из форума Наше Кино в форум Новинки (HD|DVD|BD|TV|SAT|PDTV| - Rips)

Skinwalker
 

Hombre250

Морской Волк

Пост 08-Фев-2012 22:43 (спустя 10 часов)

[Q] 

спасибо
[Профиль]  [ЛС] 

bmf2000

Корсар

Пост 09-Фев-2012 00:06 (спустя 1 час 23 минуты)

[Q] 

[Профиль]  [ЛС] 

OleksBy

Корсар

Пост 09-Фев-2012 12:48 (спустя 12 часов)

[Q] 

прикольный фильм! сенкс...
[Профиль]  [ЛС] 

kloctuk

3306

Пост 09-Фев-2012 13:22 (спустя 34 минуты)

[Q] 

zyyx, до сих пор 0 раз скачано и у всех по 96 процентов... Там же есть какая-то галочка про пиров, чтоб давать докачивать тем, кто много стянул...

_________________
-выстрели еще разок. -зачем? - его душа еще танцует...
[Профиль]  [ЛС] 

wirtual

Гроза морей

Пост 09-Фев-2012 16:25 (спустя 3 часа)

[Q] 

фильм неоднозначный, но детям однозначно нельзя смотреть как кащей иванушке горло пластает прям в камеру

_________________
не будешь делиться - останешься одноклеточным
[Профиль]  [ЛС] 

Nushka

Морской Волк

Пост 09-Фев-2012 18:50 (спустя 2 часа 24 минуты)

[Q] 

Фильм не ахти какое творчество. Если смотреть то только для ознакомления с новинкой без претензий на трату времени с пользой
[Профиль]  [ЛС] 

Saevus

Корсар

Пост 11-Фев-2012 11:17 (спустя 1 день 16 часов)

[Q] 

интересная задумка. мне фильм понравился
[Профиль]  [ЛС] 

jaytro

Морской Волк

Пост 11-Фев-2012 13:07 (спустя 1 час 49 минут)

[Q] 

скачаем , посмотрим)))
[Профиль]  [ЛС] 

nokia_series

Корсар

Пост 11-Фев-2012 19:02 (спустя 5 часов)

[Q] 

русский трешь
[Профиль]  [ЛС] 

agamemnen

Шкипер

Пост 12-Фев-2012 00:36 (спустя 5 часов)

[Q] 

[Профиль]  [ЛС] 

agamemnen

Шкипер

Пост 12-Фев-2012 00:39 (спустя 2 минуты)

[Q] 

[Профиль]  [ЛС] 

Cjey

Шкипер

Пост 12-Фев-2012 18:12 (спустя 17 часов)

[Q] 

сэнкс
[Профиль]  [ЛС] 

Александр1981

Штурман

Пост 12-Фев-2012 21:13 (спустя 3 часа)

[Q] 

подскажите стоит качать или нет
[Профиль]  [ЛС] 

Александр1981

Штурман

Пост 12-Фев-2012 21:14 (спустя 49 секунд)

[Q] 

какая скорость
[Профиль]  [ЛС] 

Pronto

Корсар

Пост 19-Фев-2012 22:56 (спустя 7 дней)

[Q] 

да ну, не выдержал)половину посмотрел и заснул

_________________
[Профиль]  [ЛС] 

Пост 20-Фев-2012 10:57 (спустя 12 часов)

Топик был перенесен из форума Новинки (HD|DVD|BD|TV|SAT|PDTV| - Rips) в форум Российские фильмы

Skinwalker
 

J. Silver

Шкипер

604

Пост 05-Мар-2012 22:05 (спустя 14 дней)

[Q] 

Или мне врут мои глаза или кто-то чуть-чуть оБшЫПся!!!
Читаю описание файла:
Формат: AVI
Видео кодек: XviD
Открываю Media Info, написано:
Complete name : C:\Realnaj.Skazka.2011.HDRip-AVC.zyyx.mkv
Format : Matroska
Жму "Список файлов" и вижу:
Realnaj.Skazka.2011.HDRip-AVC.zyyx.mkv 1.46 GB (1569690873)
Какая-то фикня!

_________________
[Профиль]  [ЛС] 

Sergi4

Гроза морей

Пост 15-Мар-2012 12:12 (спустя 9 дней)

[Q] 

Спасибо
[Профиль]  [ЛС] 

zloy-kot

Штурман

Пост 15-Мар-2012 18:59 (спустя 6 часов)

[Q] 

спасибо)

_________________
[Профиль]  [ЛС] 

Раемия

Флибустьер

Пост 30-Ноя-2013 17:02 (спустя 1 год 8 месяцев)

[Q] 

Фильм - так себе....но глянуть можно. Автору респект!!!

_________________
Любите кроликов!!!…и они отплатят вам тем же…
[Профиль]  [ЛС] 

E8GEN

Корсар

Пост 16-Дек-2013 14:25 (спустя 15 дней)

[Q] 

прикольная комедия,но точно не для детей)
[Профиль]  [ЛС] 
Показать сообщения:    
Ответить на тему

Текущее время: Сегодня 16:10

Часовой пояс: GMT + 4



Вы не можете начинать темы
Вы не можете отвечать на сообщения
Вы не можете редактировать свои сообщения
Вы не можете удалять свои сообщения
Вы не можете голосовать в опросах
Вы не можете прикреплять файлы к сообщениям
Вы не можете скачивать файлы

▼ Вниз