ML
     
  Уважаемый Гость!
Вы можете поддержать проект и зарегистрироваться у наших партнеров - онлайн-стратегия MyLands. При регистрации в игре Вы получите код, который сможете активировать после регистрации на pirat.ca и получить 1000 дублонов.

Ваш код:
74c28610d77aaac24ba694c4128f3b9b46b04220
 
     

Черная молния (Александр Войтинский, Дмитрий Киселёв) [2009 г., фантастика, боевик, мелодрама, комедия, приключения, BDRip-AVC][internal release]

Ответить на тему
 
Автор
Сообщение

Пост 08-Фев-2012 13:03

[Q] 

zyyx

--Черная молния
«Ты должен подняться»
-- Год выпуска: 2009
Мировая премьера: 28 декабря 2009
Российская премьера: 31 декабря 2009, «UPI»
Дата выхода DVD: 9 февраля 2010, «Юниверсал Пикчерс Рус»
Дата выхода Blu-Ray: 9 февраля 2010, «Юниверсал Пикчерс Рус»
Страна: Россия
Жанр: фантастика, боевик, мелодрама, комедия, приключения
Продолжительность: 01:46:05
Перевод: Не требуется [Лицензия]
Режиссер: Александр Войтинский, Дмитрий Киселёв
В ролях: Григорий Добрыгин, Иван Жидков, Виктор Вержбицкий, Сергей Гармаш, Валерий Золотухин, Екатерина Вилкова, Екатерина Старшова, Михаил Ефремов, Игорь Савочкин, Андрей Назимов
Описание: Действие картины разворачивается в наши дни, где главный герой, двадцатилетний Дима Майков, получает в подарок от отца старенькую «Волгу-21» и внезапно обнаруживает, что его машина летает, как настоящий истребитель. Герой бесцельно парит над столичными пробками и беззаботно наслаждается полетами, пока однажды беда не заставляет его по-другому взглянуть на мир.
Теперь ему предстоит встать на защиту тех, кем он дорожит, и сразиться со Злом в небе над новогодней Москвой.
Источник/Качество: BDRip-AVC | Сэмпл
Формат: MKV
Видео кодек: H.264
Аудио кодек: AC3
Видео: 1008x432, 23.98fps, 1587 Kbps
Аудио: 48.0 KHz, 6 ch, 384 Kbps
General
Complete name : C:\Chernaya.molniya.2009.BDRip-AVC.zyyx.mkv
Format : Matroska
File size : 1.46 GiB
Duration : 1h 46mn
Overall bit rate : 1 973 Kbps
Encoded date : UTC 2012-01-29 06:56:49
Writing application : mkvmerge v4.6.0 ('Still Crazy After All These Years') сборка от Mar 13 2011 18:33:29
Writing library : libebml v1.2.0 + libmatroska v1.1.0
Video
ID : 1
Format : AVC
Format/Info : Advanced Video Codec
Format profile : [email protected]
Format settings, CABAC : Yes
Format settings, ReFrames : 16 frames
Muxing mode : Container [email protected]
Codec ID : V_MPEG4/ISO/AVC
Duration : 1h 45mn
Bit rate : 1 549 Kbps
Nominal bit rate : 1 587 Kbps
Width : 1 008 pixels
Height : 432 pixels
Display aspect ratio : 2.35:1
Frame rate : 23.976 fps
Resolution : 24 bits
Colorimetry : 4:2:0
Scan type : Progressive
Bits/(Pixel*Frame) : 0.148
Stream size : 1.15 GiB (78%)
Writing library : x264 core 114 r1924 08d04a4
Audio
ID : 2
Format : AC-3
Format/Info : Audio Coding 3
Codec ID : A_AC3
Duration : 1h 46mn
Bit rate mode : Constant
Bit rate : 384 Kbps
Channel(s) : 6 channels
Channel positions : Front: L C R, Surround: L R, LFE
Sampling rate : 48.0 KHz
Stream size : 291 MiB (19%)
Download / Скачать

Хотите скачать бесплатно? Зарегистрируйтесь на сайте (ссылка на регистрацию). Pirat.ca - самый быстрый торрент трекер в рунете!

Как скачивать  ·   Что такое торрент  ·   Рейтинг и ограничения

Vulkankor

Корсар

Пост 08-Фев-2012 17:05 (спустя 4 часа)

[Q] 

Отличный фильм , мне понравился
[Профиль]  [ЛС] 

ksg111ban

Гроза морей

Пост 04-Мар-2012 23:10 (спустя 25 дней)

[Q] 

Интересная задумка,смотреть можно.

_________________
[Профиль]  [ЛС] 

bmf2000

Корсар

Пост 09-Мар-2012 10:49 (спустя 4 дня)

[Q] 

Спасибо!
[Профиль]  [ЛС] 

CHARLI2236

1096

Пост 24-Июн-2012 23:17 (спустя 3 месяца 15 дней)

[Q] 

благодарю

_________________
[Профиль]  [ЛС] 
Показать сообщения:    
Ответить на тему

Текущее время: Сегодня 10:00

Часовой пояс: GMT + 4



Вы не можете начинать темы
Вы не можете отвечать на сообщения
Вы не можете редактировать свои сообщения
Вы не можете удалять свои сообщения
Вы не можете голосовать в опросах
Вы не можете прикреплять файлы к сообщениям
Вы не можете скачивать файлы

▼ Вниз