ML
     
  Уважаемый Гость!
Вы можете поддержать проект и зарегистрироваться у наших партнеров - онлайн-стратегия MyLands. При регистрации в игре Вы получите код, который сможете активировать после регистрации на pirat.ca и получить 1000 дублонов.

Ваш код:
93dbf9fbdfa06c41d3b5a2c3921149ba36168c41
 
     

Два дня (Авдотья Смирнова) [2011 г., драма, мелодрама, комедия, HDRip-AVC][internal release]

Ответить на тему
 
Автор
Сообщение

Пост 08-Фев-2012 13:22

[Q] 

zyyx

--Два дня-- Год выпуска: 2011
Мировая премьера: 8 сентября 2011
Российская премьера: 8 сентября 2011, «Централ Партнершип»
Дата выхода DVD: 27 октября 2011, «Новый Диск»
Дата выхода Blu-Ray: 8 декабря 2011, «Новый Диск»
Страна: Россия
Жанр: драма, мелодрама, комедия
Продолжительность: 01:29:43
Перевод: Не требуется [Лицензия]
Режиссер: Авдотья Смирнова
В ролях: Ксения Раппопорт, Фёдор Бондарчук, Ирина Розанова, Евгений Муравич, Геннадий Смирнов, Леся Кудряшова, Константин Шелестун, Анна Михалкова
Описание: Петр Дроздов, высокопоставленный чиновник из Москвы, приезжает в провинциальный музей полузабытого классика русской литературы по просьбе губернатора области, который хочет отнять у музея земельные владения и построить на них новую резиденцию. И поначалу Дроздов поддерживает это решение, но знакомство с Машей, молодым литературоведом, работающей в музее заместителем директора, меняет его взгляд не только на эту проблему, но и вообще на всю его жизнь…
Источник/Качество: HDRip-AVC | Сэмпл
Формат: MKV
Видео кодек: H.264
Аудио кодек: AC3
Видео: 1024x432, 25.00fps, 1946 Kbps
Аудио: 48.0 KHz, 6 ch, 384 Kbps
General
Complete name : C:\2.dnja.2011.HDRip-AVC.zyyx.mkv
Format : Matroska
File size : 1.46 GiB
Duration : 1h 29mn
Overall bit rate : 2 328 Kbps
Encoded date : UTC 2012-01-30 09:16:28
Writing application : mkvmerge v4.6.0 ('Still Crazy After All These Years') сборка от Mar 13 2011 18:33:29
Writing library : libebml v1.2.0 + libmatroska v1.1.0
Video
ID : 1
Format : AVC
Format/Info : Advanced Video Codec
Format profile : [email protected]
Format settings, CABAC : Yes
Format settings, ReFrames : 16 frames
Muxing mode : Container [email protected]
Codec ID : V_MPEG4/ISO/AVC
Duration : 1h 29mn
Bit rate : 1 898 Kbps
Nominal bit rate : 1 946 Kbps
Width : 1 024 pixels
Height : 432 pixels
Display aspect ratio : 2.35:1
Frame rate : 25.000 fps
Resolution : 24 bits
Colorimetry : 4:2:0
Scan type : Progressive
Bits/(Pixel*Frame) : 0.172
Stream size : 1.19 GiB (82%)
Writing library : x264 core 114 r1924 08d04a4
Audio
ID : 2
Format : AC-3
Format/Info : Audio Coding 3
Codec ID : A_AC3
Duration : 1h 29mn
Bit rate mode : Constant
Bit rate : 384 Kbps
Channel(s) : 6 channels
Channel positions : Front: L C R, Surround: L R, LFE
Sampling rate : 48.0 KHz
Stream size : 246 MiB (16%)
Download / Скачать

Хотите скачать бесплатно? Зарегистрируйтесь на сайте (ссылка на регистрацию). Pirat.ca - самый быстрый торрент трекер в рунете!

Как скачивать  ·   Что такое торрент  ·   Рейтинг и ограничения

Пост 08-Фев-2012 18:37 (спустя 5 часов)

Топик был перенесен из форума Наше Кино в форум Новинки (HD|DVD|BD|TV|SAT|PDTV| - Rips)

Skinwalker
 

bruder

Флибустьер

Пост 08-Фев-2012 20:15 (спустя 6 часов)

[Q] 

Спасибо, дружище!

_________________
[Профиль]  [ЛС] 

ficus42

Корсар

Пост 09-Фев-2012 12:23 (спустя 16 часов)

[Q] 

Будем посмотреть
[Профиль]  [ЛС] 

wirtual

Гроза морей

Пост 09-Фев-2012 16:23 (спустя 4 часа)

[Q] 

черкните, как кино ?

_________________
не будешь делиться - останешься одноклеточным
[Профиль]  [ЛС] 

nokia_series

Корсар

Пост 11-Фев-2012 18:55 (спустя 2 дня 2 часа)

[Q] 

Хрень.
[Профиль]  [ЛС] 

bruder

Флибустьер

Пост 12-Фев-2012 20:36 (спустя 1 день 1 час)

[Q] 

Замечательный фильм!

_________________
[Профиль]  [ЛС] 

VanoCHIN

Морской Волк

Пост 12-Фев-2012 21:10 (спустя 34 минуты)

[Q] 

посмотреть можно.
[Профиль]  [ЛС] 

Kibersanya

Корсар

Пост 15-Фев-2012 18:03 (спустя 2 дня 20 часов)

[Q] 

[Профиль]  [ЛС] 

Пост 20-Фев-2012 10:57 (спустя 4 дня)

Топик был перенесен из форума Новинки (HD|DVD|BD|TV|SAT|PDTV| - Rips) в форум Российские фильмы

Skinwalker
 

ryurikovich

Юнга

Пост 19-Окт-2013 11:54 (спустя 1 год 8 месяцев)

[Q] 

раздайте, пожалуйста. SOS!!!
[Профиль]  [ЛС] 

Hippopotam

Корсар

Пост 24-Апр-2016 02:25 (спустя 2 года 6 месяцев)

[Q] 

Фильм преотличный Спасибо!!! Всем качать!!!
[Профиль]  [ЛС] 
Показать сообщения:    
Ответить на тему

Текущее время: Сегодня 20:18

Часовой пояс: GMT + 4



Вы не можете начинать темы
Вы не можете отвечать на сообщения
Вы не можете редактировать свои сообщения
Вы не можете удалять свои сообщения
Вы не можете голосовать в опросах
Вы не можете прикреплять файлы к сообщениям
Вы не можете скачивать файлы

▼ Вниз