ML
     
  Уважаемый Гость!
Вы можете поддержать проект и зарегистрироваться у наших партнеров - онлайн-стратегия MyLands. При регистрации в игре Вы получите код, который сможете активировать после регистрации на pirat.ca и получить 1000 дублонов.

Ваш код:
21acd5966619d49ad0b90c3305467b4646cc11a8
 
     

Мой дом - моя крепость (Андрей Морозов) [2011 г., Боевик, Криминал, SATRip]

Ответить на тему
 
Автор
Сообщение

Пост 10-Фев-2012 21:51

[Q] 

UA4HQW

Флибустьер

Мой дом - моя крепость
Год выпуска: 2011
Жанр: Боевик, Криминал
Продолжительность: 01:29:14
Режиссер: Андрей Морозов
В ролях: Егор Пазенко, Константин Соловьёв, Сергей Воробьев, Роман Агеев, Вячеслав Аркунов, Егор Будкевич, Сергей Самосадов, Игорь Лепихин
Описание: Четыре друга, прошедшие вместе войну в Чечне, возвращаются в мирную жизнь. Не желая расставаться, они покупают землю под строительство домов для своих семей на одном участке. Возведение первого дома шло своим чередом, пока не появляются бандиты, с требованием освободить площадку. Но не на тех напали. Не привыкшие к такому тону разговора, парни не дают себя сломать. Игорь заявляет, что он и его друзья – люди военные, и будут действовать по закону военного времени. Любой, кто придет с мечом, от меча и погибнет. Так, недостроенный дом Сергея становится крепостью. Позаботившись о том, чтобы их семьи уехали в безопасное место, парни готовятся к настоящей войне... Жизнь поставила их вне закона. Поиск справедливости привел к пониманию того, что справедливости – нет. А значит, выход один – сражаться с волками по волчьим законам.
Кинопоиск
Источник/Качество: SATRip
Формат: AVI
Видео кодек: XviD
Аудио кодек: MP3
Видео: 720x400 (1.80:1), 25 fps, XviD MPEG-4 ~1997 kbps avg, 0.28 bit/pixel
Аудио: 48 kHz, MPEG Layer 3, 2 ch, ~192.00 kbps avg
Общее
Полное имя : Moy.dom.moya.krepost.2011.XviD.SATRip.avi
Формат : AVI
Формат/Информация : Audio Video Interleave
Размер файла : 1,37 Гбайт
Продолжительность : 1 ч. 29 м.
Общий поток : 2199 Кбит/сек
Программа кодирования : VirtualDubMod 1.5.10.2 (build 2540/release)
Библиотека кодирования : VirtualDub build 32507/release
Видео
Идентификатор : 0
Формат : MPEG-4 Visual
Профиль формата : Advanced [email protected]
Параметр BVOP формата : 2
Параметр QPel формата : Нет
Параметр GMC формата : Без точки перехода
Параметр матрицы формата : Default (MPEG)
Режим смешивания : Сжатый битовый поток
Идентификатор кодека : XVID
Идентификатор кодека/Подсказка : XviD
Продолжительность : 1 ч. 29 м.
Битрейт : 1998 Кбит/сек
Ширина : 720 пикс.
Высота : 400 пикс.
Соотношение сторон : 16:9
Частота кадров : 25,000 кадр/сек
Цветовое пространство : YUV
Подвыборка цветности : 4:2:0
Битовая глубина : 8 бит
Тип развёртки : Прогрессивная
Метод сжатия : С потерями
Бит/(Пиксели*Кадры) : 0.277
Размер потока : 1,25 Гбайт (91%)
Библиотека кодирования : XviD 64
Аудио
Идентификатор : 1
Формат : MPEG Audio
Версия формата : Version 1
Профиль формата : Layer 3
Режим : Joint stereo
Расширение режима : MS Stereo
Идентификатор кодека : 55
Идентификатор кодека/Подсказка : MP3
Продолжительность : 1 ч. 29 м.
Вид битрейта : Постоянный
Битрейт : 192 Кбит/сек
Каналы : 2 канала
Частота : 48,0 КГц
Метод сжатия : С потерями
Задержка видео : 984 мс.
Размер потока : 123 Мбайт (9%)
Выравнивание : Разделение по промежуткам
Продолжительность промежутка : 40 мс. (1,00 видеокадр)
Время предзагрузки промежутка : 504 ms
Библиотека кодирования : LAME3.90.3
,
Download / Скачать

Хотите скачать бесплатно? Зарегистрируйтесь на сайте (ссылка на регистрацию). Pirat.ca - самый быстрый торрент трекер в рунете!

Как скачивать  ·   Что такое торрент  ·   Рейтинг и ограничения



Последний раз редактировалось: UA4HQW (2012-02-10 21:56), всего редактировалось 1 раз

goxakrauter

4540

Пост 10-Фев-2012 21:55 (спустя 4 минуты)

[Q] 

Поддержу, спасибо!
[Профиль]  [ЛС] 

nosferato

Штурман

Пост 11-Фев-2012 09:42 (спустя 11 часов)

[Q] 

Спасибо!!! заберу.

_________________
Велик интернет, а отступать некуда - позади фидо
[Профиль]  [ЛС] 

Пост 11-Фев-2012 10:53 (спустя 1 час 11 минут)

Топик был перенесен из форума Наше Кино в форум Российские фильмы

Skinwalker
 

bruder

Флибустьер

Пост 11-Фев-2012 13:22 (спустя 3 часа)

[Q] 


_________________
[Профиль]  [ЛС] 

alenfr

Пост 11-Фев-2012 14:39 (спустя 1 час 16 минут)

[Q] 

посмотрим !

_________________
Кто может — делает, кто не может — учит.
______________________________________
Держи порох сухим, а шпагу острой.
[Профиль]  [ЛС] 

ficus42

Корсар

Пост 11-Фев-2012 20:32 (спустя 5 часов)

[Q] 

Будем посмотреть
[Профиль]  [ЛС] 

agamemnen

Шкипер

Пост 12-Фев-2012 01:16 (спустя 4 часа)

[Q] 

[Профиль]  [ЛС] 

Pesok

Гроза морей

Пост 15-Фев-2012 08:32 (спустя 3 дня)

[Q] 

спасибо!

_________________
[Профиль]  [ЛС] 

bruder

Флибустьер

Пост 15-Фев-2012 20:31 (спустя 11 часов)

[Q] 

Нереальный фильм.

_________________
[Профиль]  [ЛС] 

Andrew_50

Лоцман

Пост 18-Мар-2012 12:22 (спустя 1 месяц 2 дня)

[Q] 

Спасибо большое!
[Профиль]  [ЛС] 

Фисташка

Пост 15-Авг-2012 12:09 (спустя 4 месяца 27 дней)

[Q] 

спасибо за замечательный фильм !.
[Профиль]  [ЛС] 

qwasca

Морской Волк

359

Пост 20-Авг-2012 18:28 (спустя 5 дней)

[Q] 

спасибо!!!

_________________
[Профиль]  [ЛС] 

FeudorM

Корсар

Пост 01-Окт-2012 09:14 (спустя 1 месяц 10 дней)

[Q] 

[Профиль]  [ЛС] 
Показать сообщения:    
Ответить на тему

Текущее время: Сегодня 23:19

Часовой пояс: GMT + 4



Вы не можете начинать темы
Вы не можете отвечать на сообщения
Вы не можете редактировать свои сообщения
Вы не можете удалять свои сообщения
Вы не можете голосовать в опросах
Вы не можете прикреплять файлы к сообщениям
Вы не можете скачивать файлы

▼ Вниз