ML
     
  Уважаемый Гость!
Вы можете поддержать проект и зарегистрироваться у наших партнеров - онлайн-стратегия MyLands. При регистрации в игре Вы получите код, который сможете активировать после регистрации на pirat.ca и получить 1000 дублонов.

Ваш код:
ef8b3e8cd07bec918273586d22e5aaf18e0ae925
 
     

Камень (Вячеслав Каминский) [2012 г., триллер, DVDRip] (лицензия)

Страницы :  1, 2, 3, 4, 5  След.

Ответить на тему
 
Автор
Сообщение

Пост 13-Фев-2012 23:59

[Q] 

Green

Шкипер

---Камень--«Когда остаешься один, твое сердце превращается в...»- Год выпуска: 2012
Жанр: триллер
Продолжительность: 01:24:49
Режиссер: Вячеслав Каминский
В ролях: Сергей Светлаков, Олеся Судзиловская, Николай Козак, Елена Коренева, Валда Бичкуте, Александр Колесников
Описание: Когда у известного бизнесмена похищают 7-летнего сына, он еще не представляет, какое испытание его ждет! Оказывается, таинственному похитителю не нужен никакой выкуп и у него единственное требование к отцу. В течение следующих суток тот должен решить, кто умрет из них двоих: его ребенок или он сам…
Источник/Качество: DVDRip | Сэмпл | КиноПоиск
Формат: AVI
Видео кодек: XviD
Аудио кодек: AC3
Видео: 720x304 (2.37:1), 25 fps, XviD build 47 ~1846 kbps avg, 0.34 bit/pixel
Аудио: 48 kHz, AC3 Dolby Digital, 3/2 (L,C,R,l,r) + LFE ch, ~448.00 kbps avg
General
Complete name : D:Kamen.2012.O.DVDRip
Format : AVI
Format/Info : Audio Video Interleave
File size : 1.37 GiB
Duration : 1h 24mn
Overall bit rate : 2 305 Kbps
Movie name : Kamen.2012.O.DVDRip
Genre : Action/Crime
Writing application : VirtualDubMod 1.5.10.2 (build 2540/release)
Original source form/Name : Movie
Video
ID : 0
Format : MPEG-4 Visual
Format profile : Advanced [email protected]
Format settings, BVOP : 2
Format settings, QPel : No
Format settings, GMC : No warppoints
Format settings, Matrix : Custom
Codec ID : XVID
Codec ID/Hint : XviD
Duration : 1h 24mn
Bit rate : 1 847 Kbps
Width : 720 pixels
Height : 304 pixels
Display aspect ratio : 2.35:1
Frame rate : 25.000 fps
Color space : YUV
Chroma subsampling : 4:2:0
Bit depth : 8 bits
Scan type : Progressive
Compression mode : Lossy
Bits/(Pixel*Frame) : 0.338
Stream size : 1.09 GiB (80%)
Writing library : XviD 1.2.0.dev47 (UTC 2006-11-01)
Audio
ID : 1
Format : AC-3
Format/Info : Audio Coding 3
Mode extension : CM (complete main)
Codec ID : 2000
Duration : 1h 24mn
Bit rate mode : Constant
Bit rate : 448 Kbps
Channel(s) : 6 channels
Channel positions : Front: L C R, Side: L R, LFE
Sampling rate : 48.0 KHz
Bit depth : 16 bits
Compression mode : Lossy
Stream size : 272 MiB (19%)
Alignment : Split accross interleaves
Interleave, duration : 40 ms (1.00 video frame)
Interleave, preload duration : 500 ms
Download / Скачать

Хотите скачать бесплатно? Зарегистрируйтесь на сайте (ссылка на регистрацию). Pirat.ca - самый быстрый торрент трекер в рунете!

Как скачивать  ·   Что такое торрент  ·   Рейтинг и ограничения



Последний раз редактировалось: Green (2012-02-14 00:06), всего редактировалось 2 раз(а)

Пост 14-Фев-2012 00:07 (спустя 8 минут)

Топик был перенесен из форума Наше Кино в форум Новинки (HD|DVD|BD|TV|SAT|PDTV| - Rips)

Skinwalker
 

nik0lay

Морской Волк

Пост 14-Фев-2012 00:24 (спустя 25 минут)

[Q] 

Фильм супер советую ходил в кино и ещё посмотрю!!!
На форуме  [Профиль]  [ЛС] 

sexy911

Шкипер

1

Пост 14-Фев-2012 01:13 (спустя 48 минут)

[Q] 


_________________
Подпись отключена за нарушение правил форума
[Профиль]  [ЛС] 

leonid.

Флибустьер

Пост 14-Фев-2012 01:34 (спустя 20 минут)

[Q] 

спасибо!!!
[Профиль]  [ЛС] 

glamour03

Корсар

70

Пост 14-Фев-2012 01:34 (спустя 10 секунд)

[Q] 

Расширение у файла странное :)

_________________
[Профиль]  [ЛС] 

chenya28

Шкипер

963

Пост 14-Фев-2012 02:32 (спустя 58 минут)

[Q] 

НУ И ЧТО С ФАЙЛОМ НЕ МАГУ АТКРЫТЬ cr
-разобрался все перекодировал стало нармально cx
[Профиль]  [ЛС] 

m0nkey

Лоцман

Пост 14-Фев-2012 02:38 (спустя 5 минут)

[Q] 

Спасибо.Посмотрим как Светлаков в серьезных фильмах играет...))
[Профиль]  [ЛС] 

ursus

Морской Волк

Пост 14-Фев-2012 04:01 (спустя 1 час 22 минуты)

[Q] 

[Профиль]  [ЛС] 

dimonpa

Гроза морей

Пост 14-Фев-2012 07:33 (спустя 3 часа)

[Q] 

[Профиль]  [ЛС] 

Yrets

Флибустьер

159

Пост 14-Фев-2012 08:20 (спустя 46 минут)

[Q] 

О Спасибо . Посмотрим Светлакова в другом ракурсе..
[Профиль]  [ЛС] 

efrem85

Штурман

Пост 14-Фев-2012 09:22 (спустя 1 час 2 минуты)

[Q] 

Спасибо
[Профиль]  [ЛС] 

xxxLOGICxxx

Корсар

Пост 14-Фев-2012 09:44 (спустя 21 минута)

[Q] 

[Профиль]  [ЛС] 

kisu

Гроза морей

Пост 14-Фев-2012 09:56 (спустя 11 минут)

[Q] 

давно ждал!спасибо!
[Профиль]  [ЛС] 

egor126

Гроза морей

Пост 14-Фев-2012 10:15 (спустя 19 минут)

[Q] 

[Профиль]  [ЛС] 

Ферзь

Корсар

Пост 14-Фев-2012 10:46 (спустя 31 минута)

[Q] 


_________________
[Профиль]  [ЛС] 

polozm

Легенда

Пост 14-Фев-2012 10:47 (спустя 11 секунд)

[Q] 

спасибо

_________________
mac mini -2.0 GHz Intel Core i7/ 8 GB DDR3. /Intel HD 3000(512mb)OS X 10.9 Mavericks
[Профиль]  [ЛС] 

yuriiss

Штурман

Пост 14-Фев-2012 10:50 (спустя 3 минуты)

[Q] 

DVD не видит этого фильма. Разрешение не стандартное!???
[Профиль]  [ЛС] 

Принц Датский

Корсар

Пост 14-Фев-2012 11:03 (спустя 12 минут)

[Q] 


_________________
[Профиль]  [ЛС] 

glamour03

Корсар

70

Пост 14-Фев-2012 11:07 (спустя 4 минуты)

[Q] 

DVD не видит этого фильма. Разрешение не стандартное!???
Переименуй файл, допиши в конце: .avi
Тут косячок раздающего небольшой походу :)

_________________
[Профиль]  [ЛС] 

volodya_666

Корсар

Пост 14-Фев-2012 12:07 (спустя 59 минут)

[Q] 

на конец то......
дождался..........

_________________
[Профиль]  [ЛС] 

GarySk

Корсар

Пост 14-Фев-2012 12:12 (спустя 4 минуты)

[Q] 

Спасибо!!
[Профиль]  [ЛС] 

dp

Корсар

Пост 14-Фев-2012 14:22 (спустя 2 часа 9 минут)

[Q] 


_________________
Мог стать отличным пианистом, а стал поскудным программистом
[Профиль]  [ЛС] 

andrijdj

Штурман

Пост 14-Фев-2012 14:38 (спустя 16 минут)

[Q] 

[Профиль]  [ЛС] 

ficus42

Корсар

Пост 14-Фев-2012 14:44 (спустя 5 минут)

[Q] 

Будем посмотреть
[Профиль]  [ЛС] 

was1ya

Морской Волк

Пост 14-Фев-2012 15:02 (спустя 18 минут)

[Q] 

Спасибки

_________________
[Профиль]  [ЛС] 

sergokov

Флибустьер

754

Пост 14-Фев-2012 15:24 (спустя 21 минута)

[Q] 

Отличный фильм.
[Профиль]  [ЛС] 

Zasedatelev

Морской Волк

Пост 14-Фев-2012 15:48 (спустя 24 минуты)

[Q] 

Не знаю. Мне фильм не понравился категорически. Светлакову роль не идёт абсолютно.
[Профиль]  [ЛС] 

Deadman7111983

Шкипер

71

Пост 14-Фев-2012 16:04 (спустя 15 минут)

[Q] 

[Профиль]  [ЛС] 

Chel_74

Шкипер

Пост 14-Фев-2012 16:46 (спустя 42 минуты)

[Q] 

[Профиль]  [ЛС] 
Показать сообщения:    
Ответить на тему

Текущее время: Сегодня 18:36

Часовой пояс: GMT + 4



Вы не можете начинать темы
Вы не можете отвечать на сообщения
Вы не можете редактировать свои сообщения
Вы не можете удалять свои сообщения
Вы не можете голосовать в опросах
Вы не можете прикреплять файлы к сообщениям
Вы не можете скачивать файлы

▼ Вниз