ML
     
  Уважаемый Гость!
Вы можете поддержать проект и зарегистрироваться у наших партнеров - онлайн-стратегия MyLands. При регистрации в игре Вы получите код, который сможете активировать после регистрации на pirat.ca и получить 1000 дублонов.

Ваш код:
156f85568ae63e45e07ac461c96a83ba1a876b0a
 
     

Камень (Вячеслав Каминский) [2012 г., триллер, DVDRip]

Ответить на тему
 
Автор
Сообщение

Пост 14-Фев-2012 03:00

[Q] 

zyyx

--Камень
«Когда остаешься один, твое сердце превращается в...»
-- Год выпуска: 2012
Мировая премьера: 19 января 2012
Российская премьера: 19 января 2012, «Bazelevs Distribution»
Дата выхода DVD: 16 февраля 2012, «Новый Диск»
Дата выхода Blu-Ray: 23 февраля 2012, «Новый Диск»
Страна: Россия
Жанр: триллер
Продолжительность: 01:24:49
Перевод: Не требуется [Лицензия]
Режиссер: Вячеслав Каминский
В ролях: Сергей Светлаков, Олеся Судзиловская, Николай Козак, Елена Коренева, Валда Бичкуте, Александр Колесников
Описание: Когда у известного бизнесмена похищают 7-летнего сына, он еще не представляет, какое испытание его ждет! Оказывается, таинственному похитителю не нужен никакой выкуп и у него единственное требование к отцу. В течение следующих суток тот должен решить, кто умрет из них двоих: его ребенок или он сам…
Источник/Качество: DVDRip | Сэмпл
Формат: AVI
Видео кодек: XviD
Аудио кодек: MP3
Видео: 640x272 (2.35:1), 25 fps, XviD MPEG-4, 1017 kbps avg, 0.23 bit/pixel
Аудио: 48 kHz, MPEG Layer 3, 2 ch, 128.00 kbps avg
General
Complete name : K:\Kamen.2012.O.DVDRip.700MB..avi
Format : AVI
Format/Info : Audio Video Interleave
File size : 701 MiB
Duration : 1h 24mn
Overall bit rate : 1 155 Kbps
Writing application : VirtualDubMod 1.5.10.3 | www.virtualdub-fr.org || (build 2550/release)
Writing library : VirtualDubMod build 2550/release
Video
ID : 0
Format : MPEG-4 Visual
Format profile : [email protected]
Format settings, BVOP : Yes
Format settings, QPel : No
Format settings, GMC : No warppoints
Format settings, Matrix : Default (MPEG)
Muxing mode : Packed bitstream
Codec ID : XVID
Codec ID/Hint : XviD
Duration : 1h 24mn
Bit rate : 1 017 Kbps
Width : 640 pixels
Height : 272 pixels
Display aspect ratio : 2.35:1
Frame rate : 25.000 fps
Resolution : 24 bits
Colorimetry : 4:2:0
Scan type : Progressive
Bits/(Pixel*Frame) : 0.234
Stream size : 617 MiB (88%)
Writing library : XviD 64
Audio
ID : 1
Format : MPEG Audio
Format version : Version 1
Format profile : Layer 3
Codec ID : 55
Codec ID/Hint : MP3
Duration : 1h 24mn
Bit rate mode : Constant
Bit rate : 128 Kbps
Channel(s) : 2 channels
Sampling rate : 48.0 KHz
Resolution : 16 bits
Stream size : 77.7 MiB (11%)
Alignment : Aligned on interleaves
Interleave, duration : 40 ms (1.00 video frame)
Interleave, preload duration : 504 ms
Writing library : LAME3.99.1
Download / Скачать

Хотите скачать бесплатно? Зарегистрируйтесь на сайте (ссылка на регистрацию). Pirat.ca - самый быстрый торрент трекер в рунете!

Как скачивать  ·   Что такое торрент  ·   Рейтинг и ограничения

Пост 14-Фев-2012 08:01 (спустя 5 часов)

Топик был перенесен из форума Наше Кино в форум Новинки (HD|DVD|BD|TV|SAT|PDTV| - Rips)

Skinwalker
 

egorka st

Корсар

Пост 14-Фев-2012 09:10 (спустя 6 часов)

[Q] 

Светлаков бизнесмен? Уже ради этого надо глянуть!

_________________
[Профиль]  [ЛС] 

polozm

Легенда

Пост 14-Фев-2012 10:51 (спустя 1 час 41 минута)

[Q] 

Светлаков бизнесмен? Уже ради этого надо глянуть!
bm Ага наверно партнеров по бизнесу успокаивает типа -да не очкуй ты!!!я тыщу раз уже так делал bx bm
или если что не так то-ну ты и лоошаараа...

_________________
mac mini -2.0 GHz Intel Core i7/ 8 GB DDR3. /Intel HD 3000(512mb)OS X 10.9 Mavericks
[Профиль]  [ЛС] 

vadim0525

Корсар

283

Пост 14-Фев-2012 14:39 (спустя 3 часа)

[Q] 


_________________
[Профиль]  [ЛС] 

smertgovno

Морской Волк

Пост 14-Фев-2012 17:24 (спустя 2 часа 45 минут)

[Q] 

урааа светлаков!! спасибоооо!!!
[Профиль]  [ЛС] 

yam672

Корсар

Пост 14-Фев-2012 19:54 (спустя 2 часа 30 минут)

[Q] 

спасибо, смотрим Светлакова
[Профиль]  [ЛС] 

got70

Легенда

752

Пост 14-Фев-2012 21:43 (спустя 1 час 48 минут)

[Q] 


_________________
Добро непременно победит зло!Непременно...Затем поставит на колени,и зверски УБЬЁТ!
[Профиль]  [ЛС] 

egorka st

Корсар

Пост 15-Фев-2012 07:41 (спустя 9 часов)

[Q] 

Фильм хорош, посмотреть стоит! Месть оказывается не такое и сладкое чувство….

_________________
[Профиль]  [ЛС] 

lisiy2000

Штурман

Пост 15-Фев-2012 13:15 (спустя 5 часов)

[Q] 

так комедия или триллер)))
[Профиль]  [ЛС] 

Kibersanya

Корсар

Пост 15-Фев-2012 16:33 (спустя 3 часа)

[Q] 

СПАСИБО!!! Развязка грамотная, советую...!!!!!!!!!!!!!!!
[Профиль]  [ЛС] 

ev5

Морской Волк

1286

Пост 15-Фев-2012 19:51 (спустя 3 часа)

[Q] 

Спасибо за хорошее кино!!!
[Профиль]  [ЛС] 

Fibage

Лоцман

Пост 16-Фев-2012 00:27 (спустя 4 часа)

[Q] 

Спасибо,фильм с непредсказуемым сюжетом,очень советую!
[Профиль]  [ЛС] 

KOT

Корсар

363

Пост 17-Фев-2012 02:09 (спустя 1 день 1 час)

[Q] 

Сперва думал, что это очередной трэш отечественного фильмопрома, но на деле оказалось весьма интересное кино.

_________________
[Профиль]  [ЛС] 

lexx

Корсар

129

Пост 17-Фев-2012 09:46 (спустя 7 часов)

[Q] 

[Профиль]  [ЛС] 

Milan

Шкипер

Пост 17-Фев-2012 16:41 (спустя 6 часов)

[Q] 

Поглядим)))
[Профиль]  [ЛС] 

gr71silver

Корсар

Пост 17-Фев-2012 19:53 (спустя 3 часа)

[Q] 

Спасибо!!
[Профиль]  [ЛС] 

Пост 20-Фев-2012 10:57 (спустя 2 дня 15 часов)

Топик был перенесен из форума Новинки (HD|DVD|BD|TV|SAT|PDTV| - Rips) в форум Российские фильмы

Skinwalker
 
Показать сообщения:    
Ответить на тему

Текущее время: Сегодня 21:59

Часовой пояс: GMT + 4



Вы не можете начинать темы
Вы не можете отвечать на сообщения
Вы не можете редактировать свои сообщения
Вы не можете удалять свои сообщения
Вы не можете голосовать в опросах
Вы не можете прикреплять файлы к сообщениям
Вы не можете скачивать файлы

▼ Вниз