ML
     
  Уважаемый Гость!
Вы можете поддержать проект и зарегистрироваться у наших партнеров - онлайн-стратегия MyLands. При регистрации в игре Вы получите код, который сможете активировать после регистрации на pirat.ca и получить 1000 дублонов.

Ваш код:
59354507ba913a0948d1a8f2e30f2e04c4cd7b9b
 
     

Хоттабыч / [email protected])ч (Петр Точилин)[2006 г., комедия, DVDRip]

Ответить на тему
 
Автор
Сообщение

Пост 14-Фев-2012 19:42

[Q] 

megamastor

Хоттабыч / [email protected]
О фильме:
год: 2006
страна:Россия
режиссёр: Петр Точилин
жанр: комедия
премьера (РФ): 2006 год
перевод: Не требуется
В главных ролях:
Владимир Толоконников, Мариус Ямпольскис, Марк Гейхман, Лива Круминя, Юлия Паранова, Мила Липнер, Григорий Скряпкин, Иван Губанов, Александр Овчинников, Юрий Думчев, Константин Спасский, Ростислав Крохин, Борис Щербаков
Описание: Гена — программист по призванию и хакер по жизни. Он хороший парень. Но у него реальные проблемы. Его бросила любимая девушка, его «пасут» бандиты и выслеживают спецслужбы. Спасти его может только чудо, и оно, конечно же, случается. В жизни Гены появляется Хоттабыч, джин, который отмотал несколько тысяч лет заключения в одиночном кувшине.
И теперь готов исполнить три любых желания своего освободителя. Но у самого Хоттабыча тоже проблемы. За ним охотится его давний враг — Шайтаныч. Спасаясь от своих врагов, Гена и Хоттабыч летают на поточенном говорящей молью ковре-самолете над Красной площадью, путешествуют по сетям Мировой Паутины и практикуют магию: превращают людей в вещи, а вещи в людей…
Качество: DVDRip
Формат: mkv
Видео кодек: H.264
Аудио кодек: AC3
Видео: MPEG-4 AVC Video(х264), [email protected] анаморф, 1.865:1, 25fps, 2 500Kbps, 0.269 bit/pixel
Аудио: 48 kHz, AC3, 6 ch, ~ 448.00 kbps
Общее
Полное имя : D:\torrent\[email protected])ч.mkv
Формат : Matroska
Версия формата : Version 2
Размер файла : 1,89 Гбайт
Продолжительность : 1 ч. 31 м.
Общий поток : 2948 Кбит/сек
Дата кодирования : UTC 2011-06-12 06:57:56
Программа кодирования : mkvmerge v3.4.0 ('Rapunzel') сборка от May 15 2010 09:38:20
Библиотека кодирования : libebml v0.8.0 + libmatroska v0.9.0
Видео
Идентификатор : 1
Формат : AVC
Формат/Информация : Advanced Video Codec
Профиль формата : [email protected]
Параметр CABAC формата : Да
Параметр ReFrames формата : 8 кадров
Идентификатор кодека : V_MPEG4/ISO/AVC
Продолжительность : 1 ч. 31 м.
Битрейт : 2500 Кбит/сек
Ширина : 720 пикселей
Высота : 516 пикселей
Соотношение сторон : 1,864
Соотношение сторон в оригинале : 1,865
Частота кадров : 25,000 кадров/сек
Цветовое пространство : YUV
Субдискретизация насыщенности : 4:2:0
Битовая глубина : 8 бит
Тип развёртки : Прогрессивная
Бит/(Пиксели*Кадры) : 0.269
Размер потока : 1,57 Гбайт (83%)
Заголовок : [email protected]
Библиотека кодирования : x264 core 108 r1790 8eaf8a6
Язык : English
Default : Нет
Forced : Нет
Аудио
Идентификатор : 2
Формат : AC-3
Формат/Информация : Audio Coding 3
Расширение режима : CM (complete main)
Идентификатор кодека : A_AC3
Продолжительность : 1 ч. 31 м.
Вид битрейта : Постоянный
Битрейт : 448 Кбит/сек
Каналы : 6 каналов
Расположение каналов : Front: L C R, Side: L R, LFE
Частота : 48,0 КГц
Битовая глубина : 16 бит
Метод сжатия : С потерями
Задержка видео : 13 с.
Размер потока : 294 Мбайт (15%)
Заголовок : AC3 6ch. 448kbps rus.
Язык : Russian
Default : Да
Forced : Нет
Download / Скачать

Хотите скачать бесплатно? Зарегистрируйтесь на сайте (ссылка на регистрацию). Pirat.ca - самый быстрый торрент трекер в рунете!

Как скачивать  ·   Что такое торрент  ·   Рейтинг и ограничения



Последний раз редактировалось: megamastor (2012-02-15 08:46), всего редактировалось 6 раз(а)

Пост 17-Фев-2012 16:19 (спустя 2 дня 20 часов)

Топик был перенесен из форума Наше Кино в форум Российские фильмы

Skinwalker
 

megamastor ®

2827

Пост 19-Фев-2012 13:23 (спустя 4 дня)

[Q] 

Встреча с милиционерами Хоттабыча вообще просто супер !
[Профиль]  [ЛС] 

ksg111ban

Гроза морей

Пост 04-Мар-2012 23:08 (спустя 14 дней)

[Q] 

Отличная комедия!!!!!!

_________________
[Профиль]  [ЛС] 

megamastor ®

2827

Пост 17-Мар-2012 14:24 (спустя 12 дней)

[Q] 

db На раздаче 24/7, С с 2:00 до 10:00 мск скорость выше
[Профиль]  [ЛС] 

vahurest

Лоцман

Пост 17-Мар-2012 18:20 (спустя 3 часа)

[Q] 

[Профиль]  [ЛС] 

YSPAN

Морской Волк

Пост 20-Мар-2012 18:56 (спустя 3 дня)

[Q] 

bm
[Профиль]  [ЛС] 

hohol541

Корсар

Пост 29-Дек-2012 11:02 (спустя 9 месяцев 8 дней)

[Q] 

Нормальный фильм.
[Профиль]  [ЛС] 

ivan.tratil 67

Корсар

Пост 17-Янв-2013 14:08 (спустя 19 дней)

[Q] 

[Профиль]  [ЛС] 

Lifted

Флибустьер

220

Пост 11-Июл-2013 04:41 (спустя 5 месяцев 24 дня)

[Q] 

спасибо, еще раз погляжу) неплохой фильм
[Профиль]  [ЛС] 

yorig

Лоцман

Пост 17-Июл-2013 10:10 (спустя 6 дней)

[Q] 

[Профиль]  [ЛС] 
Показать сообщения:    
Ответить на тему

Текущее время: Сегодня 16:07

Часовой пояс: GMT + 4



Вы не можете начинать темы
Вы не можете отвечать на сообщения
Вы не можете редактировать свои сообщения
Вы не можете удалять свои сообщения
Вы не можете голосовать в опросах
Вы не можете прикреплять файлы к сообщениям
Вы не можете скачивать файлы

▼ Вниз