ML
     
  Уважаемый Гость!
Вы можете поддержать проект и зарегистрироваться у наших партнеров - онлайн-стратегия MyLands. При регистрации в игре Вы получите код, который сможете активировать после регистрации на pirat.ca и получить 1000 дублонов.

Ваш код:
2a3da67fd641d69eeebb7cb965232435a70eaa24
 
     

Камень (Вячеслав Каминский) [2012 г., триллер, DVDRip-AVC][internal release]

Страницы :  1, 2  След.

Ответить на тему
 
Автор
Сообщение

Пост 15-Фев-2012 05:41

[Q] 

zyyx

--Камень
«Когда остаешься один, твое сердце превращается в...»
-- Год выпуска: 2012
Мировая премьера: 19 января 2012
Российская премьера: 19 января 2012, «Bazelevs Distribution»
Дата выхода DVD: 16 февраля 2012, «Новый Диск»
Дата выхода Blu-Ray: 23 февраля 2012, «Новый Диск»
Страна: Россия
Жанр: триллер
Продолжительность: 01:24:49
Перевод: Не требуется [Лицензия]
Режиссер: Вячеслав Каминский
В ролях: Сергей Светлаков, Олеся Судзиловская, Николай Козак, Елена Коренева, Валда Бичкуте,Александр Колесников, Мария Козлова
Описание: Когда у известного бизнесмена похищают 7-летнего сына, он еще не представляет, какое испытание его ждет! Оказывается, таинственному похитителю не нужен никакой выкуп и у него единственное требование к отцу. В течение следующих суток тот должен решить, кто умрет из них двоих: его ребенок или он сам…
Источник/Качество: DVDRip-AVC | Сэмпл
Формат: MKV
Видео кодек: H.264
Аудио кодек: AC3
Видео: [email protected]:432, 25.000 fps, 2 082 Kbps, 0.262 bit/pixel
Аудио: 48.0 KHz, 6 ch, 384 Kbps
General
Complete name : E:\Kamen.2012.O.DVDRip-AVC.zyyx.mkv
Format : Matroska
File size : 1.46 GiB
Duration : 1h 24mn
Overall bit rate : 2 467 Kbps
Encoded date : UTC 2012-02-14 23:18:25
Writing application : mkvmerge v4.6.0 ('Still Crazy After All These Years') сборка от Mar 13 2011 18:33:29
Writing library : libebml v1.2.0 + libmatroska v1.1.0
Video
ID : 1
Format : AVC
Format/Info : Advanced Video Codec
Format profile : [email protected]
Format settings, CABAC : Yes
Format settings, ReFrames : 16 frames
Muxing mode : Container [email protected]
Codec ID : V_MPEG4/ISO/AVC
Duration : 1h 24mn
Bit rate : 2 034 Kbps
Nominal bit rate : 2 082 Kbps
Width : 720 pixels
Height : 432 pixels
Display aspect ratio : 2.35:1
Original display aspect ratio : 2.35:1
Frame rate : 25.000 fps
Resolution : 24 bits
Colorimetry : 4:2:0
Scan type : Progressive
Bits/(Pixel*Frame) : 0.262
Stream size : 1.21 GiB (82%)
Writing library : x264 core 114 r1924 08d04a4
Audio
ID : 2
Format : AC-3
Format/Info : Audio Coding 3
Codec ID : A_AC3
Duration : 1h 24mn
Bit rate mode : Constant
Bit rate : 384 Kbps
Channel(s) : 6 channels
Channel positions : Front: L C R, Surround: L R, LFE
Sampling rate : 48.0 KHz
Stream size : 233 MiB (16%)
Download / Скачать

Хотите скачать бесплатно? Зарегистрируйтесь на сайте (ссылка на регистрацию). Pirat.ca - самый быстрый торрент трекер в рунете!

Как скачивать  ·   Что такое торрент  ·   Рейтинг и ограничения



Последний раз редактировалось: zyyx (2012-02-15 11:03), всего редактировалось 1 раз

Пост 15-Фев-2012 08:08 (спустя 2 часа 27 минут)

Топик был перенесен из форума Наше Кино в форум Новинки (HD|DVD|BD|TV|SAT|PDTV| - Rips)

Skinwalker
 

egor126

Гроза морей

Пост 15-Фев-2012 10:04 (спустя 4 часа)

[Q] 

[Профиль]  [ЛС] 

sergiozz

Шкипер

Пост 15-Фев-2012 10:38 (спустя 33 минуты)

[Q] 

ну и как фильм?) стоит смотреть?
[Профиль]  [ЛС] 

ursus

Морской Волк

Пост 15-Фев-2012 12:23 (спустя 1 час 45 минут)

[Q] 

[Профиль]  [ЛС] 

Принц Датский

Корсар

Пост 15-Фев-2012 13:14 (спустя 50 минут)

[Q] 

ну и как фильм?) стоит смотреть?
однозначно стоит

_________________
[Профиль]  [ЛС] 

Processor

Корсар

68

Пост 15-Фев-2012 14:25 (спустя 1 час 10 минут)

[Q] 

Спасибо! Посмотрим
[Профиль]  [ЛС] 

John1973

Лоцман

Пост 15-Фев-2012 14:27 (спустя 2 минуты)

[Q] 

Смотреть можно, но концовка слезливая!
[Профиль]  [ЛС] 

Lana38

Корсар

Пост 15-Фев-2012 15:31 (спустя 1 час 3 минуты)

[Q] 

Раздающему конечно спасибо , но скорости нет СОВСЕМ (((
[Профиль]  [ЛС] 

Borka82

Морской Волк

Пост 15-Фев-2012 16:36 (спустя 1 час 5 минут)

[Q] 

[Профиль]  [ЛС] 

wirtual

Гроза морей

Пост 15-Фев-2012 17:38 (спустя 1 час 1 минута)

[Q] 


_________________
не будешь делиться - останешься одноклеточным
[Профиль]  [ЛС] 

V.Spectre

Морской Волк

Пост 15-Фев-2012 17:41 (спустя 3 минуты)

[Q] 

[Профиль]  [ЛС] 

Kibersanya

Корсар

Пост 15-Фев-2012 17:45 (спустя 3 минуты)

[Q] 

Отличный фильм! Всем советую!
[Профиль]  [ЛС] 

dgonotosik00000

Штурман

3

Пост 15-Фев-2012 19:16 (спустя 1 час 30 минут)

[Q] 

[Профиль]  [ЛС] 

dimonpa

Гроза морей

Пост 15-Фев-2012 20:12 (спустя 56 минут)

[Q] 

[Профиль]  [ЛС] 

Юра064

Лоцман

Пост 15-Фев-2012 20:28 (спустя 15 минут)

[Q] 

javascript:emoticon(' ')
[Профиль]  [ЛС] 

bmf2000

Корсар

Пост 15-Фев-2012 22:17 (спустя 1 час 48 минут)

[Q] 

Спасибо!
[Профиль]  [ЛС] 

KIRST

Корсар

Пост 15-Фев-2012 23:18 (спустя 1 час 1 минута)

[Q] 

[Профиль]  [ЛС] 

vito198322

Корсар

Пост 15-Фев-2012 23:27 (спустя 9 минут)

[Q] 

Спасибо!
[Профиль]  [ЛС] 

иZVeRG

Штурман

170

Пост 15-Фев-2012 23:45 (спустя 17 минут)

[Q] 

Камень
Видео: [email protected]15:432
Другой мир
Видео: [email protected]14x424
zyyx
ARS Calculator в помощь ))---

О, ужААААс ai Кто такие штампики наделял...верните уже, наконец, Ocean -а...трекер весь как топором деланный.

_________________
О нас думают плохо лишь те, кто хуже нас, а те кто лучше нас, им просто не до нас.
© Омар Хайям.
[Профиль]  [ЛС] 

skiff-m

Корсар

318

Пост 16-Фев-2012 01:13 (спустя 1 час 27 минут)

[Q] 

Давно я не видел такого гoвна...

_________________
[Профиль]  [ЛС] 

dp

Корсар

Пост 16-Фев-2012 14:24 (спустя 13 часов)

[Q] 

Нормальный фильм, еще бы вместо "дулина" др. актер бы играл, а то у него лицо везде одинаковое так и ждал щас заорет тагилл

_________________
Мог стать отличным пианистом, а стал поскудным программистом
[Профиль]  [ЛС] 

the_lame

Корсар

Пост 16-Фев-2012 17:59 (спустя 3 часа)

[Q] 

Заценим
[Профиль]  [ЛС] 

Димарик82

Корсар

725

Пост 16-Фев-2012 18:33 (спустя 33 минуты)

[Q] 

[Профиль]  [ЛС] 

alexx69

Морской Волк

Пост 16-Фев-2012 20:39 (спустя 2 часа 6 минут)

[Q] 


_________________
[Профиль]  [ЛС] 

Стасон

Шкипер

Пост 16-Фев-2012 22:23 (спустя 1 час 43 минуты)

[Q] 

нормально можете описать?
[Профиль]  [ЛС] 

deek007

Лоцман

Пост 16-Фев-2012 22:31 (спустя 7 минут)

[Q] 

[Профиль]  [ЛС] 

жорик-жорик)))

Лоцман

Пост 17-Фев-2012 00:02 (спустя 1 час 31 минута)

[Q] 

куйня))))) не тратьте зря время на тупой убогий фильм. а главному герою лучше в комедиях играть)))))
[Профиль]  [ЛС] 

ficus42

Корсар

Пост 17-Фев-2012 11:32 (спустя 11 часов)

[Q] 

Будем посмотреть
[Профиль]  [ЛС] 

Alex Green

Лоцман

Пост 17-Фев-2012 13:53 (спустя 2 часа 21 минута)

[Q] 

глубокое Вам мэрси!!!!!!
[Профиль]  [ЛС] 
Показать сообщения:    
Ответить на тему

Текущее время: Сегодня 01:18

Часовой пояс: GMT + 4



Вы не можете начинать темы
Вы не можете отвечать на сообщения
Вы не можете редактировать свои сообщения
Вы не можете удалять свои сообщения
Вы не можете голосовать в опросах
Вы не можете прикреплять файлы к сообщениям
Вы не можете скачивать файлы

▼ Вниз