ML
     
  Уважаемый Гость!
Вы можете поддержать проект и зарегистрироваться у наших партнеров - онлайн-стратегия MyLands. При регистрации в игре Вы получите код, который сможете активировать после регистрации на pirat.ca и получить 1000 дублонов.

Ваш код:
21acd5966619d49ad0b90c3305467b4646cc11a8
 
     

Ёлки 2 (Дмитрий Киселёв, Александр Баранов, Александр Котт) [2011 г., комедия, BDRip-AVC][internal release]

Ответить на тему
 
Автор
Сообщение

Пост 16-Фев-2012 00:45

[Q] 

zyyx

Ёлки 2
«Идём на сближение»
Год выпуска: 2011
Мировая премьера: 15 декабря 2011
Российская премьера: 15 декабря 2011, «Bazelevs Distribution»
Дата выхода DVD: 26 января 2012, «Новый Диск»
Дата выхода Blu-Ray: 9 февраля 2012, «Новый Диск»
Страна: Россия
Жанр: комедия
Продолжительность: 01:40:19
Перевод: Не требуется [Лицензия]
Режиссер: Дмитрий Киселёв, Александр Баранов, Александр Котт
В ролях: Сергей Светлаков, Иван Ургант, Вера Брежнева, Сергей Безруков, Владимир Меньшов, Гоша Куценко, Александр Головин, Виктор Вержбицкий
Описание: За этот год много чего произошло, но наступит день, который всё расставит на свои места. Продолжение новогодних историй, которые происходили в жизни героев в фильме «Ёлки».
Источник/Качество: BDRip-AVC | Сэмпл
Формат: MKV
Видео кодек: H.264
Аудио кодек: AC3
Видео: 1024x576, 23.976 fps, 1765 Kbps, 0.122 bit/pixel
Аудио: 48.0 KHz, 6 ch, 320 Kbps
General
Complete name : K:\Elki 2.2011.BDRip-AVC.zyyx.mkv
Format : Matroska
File size : 1.46 GiB
Duration : 1h 40mn
Overall bit rate : 2 087 Kbps
Encoded date : UTC 2012-02-15 13:39:38
Writing application : mkvmerge v4.6.0 ('Still Crazy After All These Years') сборка от Mar 13 2011 18:33:29
Writing library : libebml v1.2.0 + libmatroska v1.1.0
Video
ID : 1
Format : AVC
Format/Info : Advanced Video Codec
Format profile : [email protected]
Format settings, CABAC : Yes
Format settings, ReFrames : 16 frames
Muxing mode : Container [email protected]
Codec ID : V_MPEG4/ISO/AVC
Duration : 1h 40mn
Bit rate : 1 725 Kbps
Nominal bit rate : 1 765 Kbps
Width : 1 024 pixels
Height : 576 pixels
Display aspect ratio : 16:9
Frame rate : 23.976 fps
Resolution : 24 bits
Colorimetry : 4:2:0
Scan type : Progressive
Bits/(Pixel*Frame) : 0.122
Stream size : 1.21 GiB (83%)
Writing library : x264 core 114 r1924 08d04a4
Audio
ID : 2
Format : AC-3
Format/Info : Audio Coding 3
Codec ID : A_AC3
Duration : 1h 40mn
Bit rate mode : Constant
Bit rate : 320 Kbps
Channel(s) : 6 channels
Channel positions : Front: L C R, Surround: L R, LFE
Sampling rate : 48.0 KHz
Stream size : 230 MiB (15%)
Download / Скачать

Хотите скачать бесплатно? Зарегистрируйтесь на сайте (ссылка на регистрацию). Pirat.ca - самый быстрый торрент трекер в рунете!

Как скачивать  ·   Что такое торрент  ·   Рейтинг и ограничения

Пост 16-Фев-2012 00:56 (спустя 11 минут)

Топик был перенесен из форума Наше Кино в форум Новинки (HD|DVD|BD|TV|SAT|PDTV| - Rips)

Skinwalker
 

paramon511

Морской Волк

Пост 16-Фев-2012 08:40 (спустя 7 часов)

[Q] 


_________________
[Профиль]  [ЛС] 

citrus

Морской Волк

Пост 19-Фев-2012 21:11 (спустя 3 дня)

[Q] 

[Профиль]  [ЛС] 

Пост 20-Фев-2012 10:57 (спустя 13 часов)

Топик был перенесен из форума Новинки (HD|DVD|BD|TV|SAT|PDTV| - Rips) в форум Российские фильмы

Skinwalker
 

pryanik_1503

Лоцман

Пост 28-Фев-2012 00:11 (спустя 8 дней)

[Q] 

посмотреть можно
[Профиль]  [ЛС] 

ksg111ban

Гроза морей

Пост 04-Мар-2012 23:09 (спустя 5 дней)

[Q] 


_________________
[Профиль]  [ЛС] 

balma2004

Лоцман

Пост 20-Мар-2012 19:38 (спустя 15 дней)

[Q] 

ржачный фильм, очень удивился что приличная комения, умеют же снимать когда хотят, хороший фильм от душт посмеялся.
[Профиль]  [ЛС] 

V.Spectre

Морской Волк

Пост 24-Мар-2012 10:52 (спустя 3 дня)

[Q] 

.
[Профиль]  [ЛС] 

UpGrade

Шкипер

Пост 25-Май-2012 09:34 (спустя 2 месяца)

[Q] 

[Профиль]  [ЛС] 

Grand Zero

Морской Волк

Пост 22-Дек-2013 12:00 (спустя 1 год 6 месяцев)

[Q] 

классный фильм спс))
[Профиль]  [ЛС] 

Mistar

Морской Волк

1

Пост 24-Дек-2013 18:41 (спустя 2 дня 6 часов)

[Q] 

Лови бочку посмотрим.
[Профиль]  [ЛС] 

Lana38

Корсар

Пост 05-Янв-2014 13:25 (спустя 11 дней)

[Q] 

Перед просмотром Ёлок-3 захотелось освежить в памяти ) Спасибо раздающему !
[Профиль]  [ЛС] 

Figur

Штурман

Пост 07-Янв-2014 21:29 (спустя 2 дня 8 часов)

[Q] 

Спасибо!!! надо иметь в своей коллекции
[Профиль]  [ЛС] 

olezhka

Морской Волк

Пост 08-Янв-2014 23:09 (спустя 1 день 1 час)

[Q] 

Благодарю, качаю!
[Профиль]  [ЛС] 

ALEHAN

Легенда

Пост 21-Янв-2014 00:53 (спустя 12 дней)

[Q] 

достойное продолжение первой части. Очень бодрый веселый фильм
[Профиль]  [ЛС] 

Bobrizha

Морской Волк

Пост 21-Янв-2014 14:43 (спустя 13 часов)

[Q] 

Спасибо!!! спасибо!!!!
[Профиль]  [ЛС] 

yam672

Корсар

Пост 22-Янв-2014 16:50 (спустя 1 день 2 часа)

[Q] 

смотрим сразу три серии Спасибо!!!
[Профиль]  [ЛС] 

Bobrizha

Морской Волк

Пост 30-Янв-2014 00:06 (спустя 7 дней)

[Q] 

Однообразные фильмы, жаль.
[Профиль]  [ЛС] 

ment

Шкипер

Пост 30-Янв-2014 15:01 (спустя 14 часов)

[Q] 

класно! А в чём собсно дело?
[Профиль]  [ЛС] 

a s d

Шкипер

1

Пост 09-Май-2014 00:39 (спустя 3 месяца 9 дней)

[Q] 

это не фильм, а подиум для суперзвезд нашего телеящика!!!скучнейшая шняга!!!
[Профиль]  [ЛС] 

Lana38

Корсар

Пост 08-Янв-2015 18:50 (спустя 7 месяцев 29 дней)

[Q] 

Хороший, добрый, новогодний фильм для просмотра вместе с семьёй)) Мне понравилось Раздающему респект!
[Профиль]  [ЛС] 

mixa1208

Шкипер

Пост 10-Янв-2015 10:33 (спустя 1 день 15 часов)

[Q] 

Фильм классный Автору респект!!! Лови бочку
[Профиль]  [ЛС] 
Показать сообщения:    
Ответить на тему

Текущее время: Сегодня 23:19

Часовой пояс: GMT + 4



Вы не можете начинать темы
Вы не можете отвечать на сообщения
Вы не можете редактировать свои сообщения
Вы не можете удалять свои сообщения
Вы не можете голосовать в опросах
Вы не можете прикреплять файлы к сообщениям
Вы не можете скачивать файлы

▼ Вниз