ML
     
  Уважаемый Гость!
Вы можете поддержать проект и зарегистрироваться у наших партнеров - онлайн-стратегия MyLands. При регистрации в игре Вы получите код, который сможете активировать после регистрации на pirat.ca и получить 1000 дублонов.

Ваш код:
156f85568ae63e45e07ac461c96a83ba1a876b0a
 
     

Камень (Вячеслав Каминский) [2012 г., триллер, BDRip]

Ответить на тему
 
Автор
Сообщение

Пост 18-Фев-2012 11:23

[Q] 

zyyx

--Камень
«Когда остаешься один, твое сердце превращается в...»
-- Год выпуска: 2012
Мировая премьера: 19 января 2012
Российская премьера: 19 января 2012, «Bazelevs Distribution»
Дата выхода DVD: 16 февраля 2012, «Новый Диск»
Дата выхода Blu-Ray: 23 февраля 2012, «Новый Диск»
Страна: Россия
Жанр: триллер
Продолжительность: 01:24:49
Перевод: Не требуется [Лицензия]
Режиссер: Вячеслав Каминский
В ролях: Сергей Светлаков, Олеся Судзиловская, Николай Козак, Елена Коренева, Валда Бичкуте,Александр Колесников, Мария Козлова
Описание: Когда у известного бизнесмена похищают 7-летнего сына, он еще не представляет, какое испытание его ждет! Оказывается, таинственному похитителю не нужен никакой выкуп и у него единственное требование к отцу. В течение следующих суток тот должен решить, кто умрет из них двоих: его ребенок или он сам…
Источник/Качество: BDRip | Сэмпл
Формат: AVI
Видео кодек: XviD
Аудио кодек: AC3
Видео: 720x304 (2.37:1), 25 fps, XviD build 50, 1998 kbps avg, 0.36 bit/pixel
Аудио: 48 kHz, AC3 Dolby Digital, 3/2 (L,C,R,l,r) + LFE ch, 448 kbps
General
Complete name : E:\Kamen.2012.O.BDRip.avi.avi
Format : AVI
Format/Info : Audio Video Interleave
File size : 1.46 GiB
Duration : 1h 24mn
Overall bit rate : 2 456 Kbps
Writing application : VirtualDubMod 1.5.10.3 | www.virtualdub-fr.org || (build 2550/release)
Writing library : VirtualDubMod build 2550/release
Video
ID : 0
Format : MPEG-4 Visual
Format profile : [email protected]
Format settings, BVOP : Yes
Format settings, QPel : No
Format settings, GMC : No warppoints
Format settings, Matrix : Default (MPEG)
Codec ID : XVID
Codec ID/Hint : XviD
Duration : 1h 24mn
Bit rate : 1 999 Kbps
Width : 720 pixels
Height : 304 pixels
Display aspect ratio : 2.35:1
Frame rate : 25.000 fps
Resolution : 24 bits
Colorimetry : 4:2:0
Scan type : Progressive
Bits/(Pixel*Frame) : 0.365
Stream size : 1.18 GiB (81%)
Writing library : XviD 1.2.1 (UTC 2008-12-04)
Audio
ID : 1
Format : AC-3
Format/Info : Audio Coding 3
Codec ID : 2000
Duration : 1h 24mn
Bit rate mode : Constant
Bit rate : 448 Kbps
Channel(s) : 6 channels
Channel positions : Front: L C R, Surround: L R, LFE
Sampling rate : 48.0 KHz
Stream size : 272 MiB (18%)
Alignment : Split accross interleaves
Interleave, duration : 40 ms (1.00 video frame)
Interleave, preload duration : 500 ms
Download / Скачать

Хотите скачать бесплатно? Зарегистрируйтесь на сайте (ссылка на регистрацию). Pirat.ca - самый быстрый торрент трекер в рунете!

Как скачивать  ·   Что такое торрент  ·   Рейтинг и ограничения

Пост 18-Фев-2012 12:08 (спустя 45 минут)

Топик был перенесен из форума Наше Кино в форум Новинки (HD|DVD|BD|TV|SAT|PDTV| - Rips)

Skinwalker
 

mixanikk

Морской Волк

Пост 18-Фев-2012 13:29 (спустя 2 часа 6 минут)

[Q] 

[Профиль]  [ЛС] 

Krayt

Лоцман

Пост 18-Фев-2012 14:37 (спустя 1 час 7 минут)

[Q] 

[Профиль]  [ЛС] 

Тёркин

Морской Волк

Пост 18-Фев-2012 16:13 (спустя 1 час 35 минут)

[Q] 

Благодарю!
[Профиль]  [ЛС] 

valdislaf

Штурман

Пост 18-Фев-2012 17:16 (спустя 1 час 3 минуты)

[Q] 


_________________
закрома оф Родина очень забористо!!!
[Профиль]  [ЛС] 

Valf66

Морской Волк

Пост 18-Фев-2012 20:03 (спустя 2 часа 47 минут)

[Q] 

Отличный фильм!
[Профиль]  [ЛС] 

MrGreen

Морской Волк

Пост 18-Фев-2012 21:02 (спустя 59 минут)

[Q] 


_________________
[Профиль]  [ЛС] 

мыкола

Шкипер

Пост 18-Фев-2012 22:30 (спустя 1 час 27 минут)

[Q] 

спасибо за фильм.
[Профиль]  [ЛС] 

johnnyfunk

Штурман

Пост 19-Фев-2012 23:47 (спустя 1 день 1 час)

[Q] 

отличный фильм, но все равно серьезно светлакова не воспринимаю)) полфильма кажется как будто он сейчас скажет "Да че ты окуешь, лошара, я уже сто раз так делал" XD клевый фильм, всем качать, автору спасибо=)
[Профиль]  [ЛС] 

PavelMarunko

Лоцман

Пост 25-Фев-2012 19:25 (спустя 5 дней)

[Q] 

Фильм отличный! Спасибо!
[Профиль]  [ЛС] 

prokf

Лоцман

Пост 12-Мар-2012 22:11 (спустя 16 дней)

[Q] 

Фильм понравился, спасибо пиратке!)
[Профиль]  [ЛС] 

EvilPuzatik

Корсар

Пост 13-Мар-2012 07:42 (спустя 9 часов)

[Q] 


_________________
[Профиль]  [ЛС] 

Aleha6346

Морской Волк

428

Пост 13-Мар-2012 16:24 (спустя 8 часов)

[Q] 

[Профиль]  [ЛС] 

Zasedatelev

Морской Волк

Пост 13-Мар-2012 16:38 (спустя 14 минут)

[Q] 

Абсолютно не понравился фильм. Светлаков явно не в своей роли. Роль ему не идёт, да и играет он очень посредственно. Сюжет тоже кривой.
[Профиль]  [ЛС] 

anonymoys

Гроза морей

901

Пост 14-Мар-2012 18:38 (спустя 1 день 1 час)

[Q] 

[Профиль]  [ЛС] 

lebonnet

Флибустьер

Пост 14-Мар-2012 19:31 (спустя 52 минуты)

[Q] 

[Профиль]  [ЛС] 

Lorni

Штурман

Пост 14-Мар-2012 23:35 (спустя 4 часа)

[Q] 

С дикцией что-то в этом фильме Светлаков подкачал.
[Профиль]  [ЛС] 

Пост 20-Мар-2012 21:01 (спустя 5 дней)

Топик был перенесен из форума Новинки (HD|DVD|BD|TV|SAT|PDTV| - Rips) в форум Российские фильмы

ara1205
 

Mitiaj

Штурман

Пост 29-Мар-2012 17:17 (спустя 14 дней)

[Q] 

[Профиль]  [ЛС] 

arsi

Морской Волк

Пост 22-Ноя-2012 17:35 (спустя 7 месяцев 24 дня)

[Q] 

[Профиль]  [ЛС] 
Показать сообщения:    
Ответить на тему

Текущее время: Сегодня 21:55

Часовой пояс: GMT + 4



Вы не можете начинать темы
Вы не можете отвечать на сообщения
Вы не можете редактировать свои сообщения
Вы не можете удалять свои сообщения
Вы не можете голосовать в опросах
Вы не можете прикреплять файлы к сообщениям
Вы не можете скачивать файлы

▼ Вниз