ML
     
  Уважаемый Гость!
Вы можете поддержать проект и зарегистрироваться у наших партнеров - онлайн-стратегия MyLands. При регистрации в игре Вы получите код, который сможете активировать после регистрации на pirat.ca и получить 1000 дублонов.

Ваш код:
93dbf9fbdfa06c41d3b5a2c3921149ba36168c41
 
     

Моя безумная семья (Ренат Давлетьяров) [2011 г., комедия, DVDRip-AVC][internal release]

Ответить на тему
 
Автор
Сообщение

Пост 23-Фев-2012 08:32

[Q] 

zyyx

--Моя безумная семья-- Год выпуска: 2011
Мировая премьера: 5 января 2012
Российская премьера: 5 января 2012, «Двадцатый Век Фокс СНГ»
Дата выхода DVD: 1 марта 2012, «Двадцатый Век Фокс СНГ»
Дата выхода Blu-Ray: 1 марта 2012, «Двадцатый Век Фокс СНГ»
Производство: Россия
Жанр: комедия
Продолжительность: 01:20:27
Перевод: Не требуется [лицензия]
Режиссер: Ренат Давлетьяров
В ролях: Иван Стебунов, Аглая Шиловская, Леонид Ярмольник, Мария Шукшина, Андрей Ургант, Лариса Удовиченко, Андрей Панин, Анна Ардова, Ольга Орлова, Вячеслав Манучаров
Описание: Родителей не выбирают! Но что делать, если после знакомства с твоими домочадцами подружки уходят навсегда? А тут появляется девушка мечты и настает время знакомить ее с семьей!
Главный герой находит оригинальный выход: нанимает актеров из рекламного ролика, чтобы те сыграли его семью. Однако идеальный план выходит из-под контроля, ситуация накаляется и наш герой вынужден идти на крайние меры, чтобы не потерять любимую девушку и свою семью.
Источник/Качество: DVDRip-AVC | Сэмпл
Формат: MKV
Видео кодек: H.264
Аудио кодек: AC3
Видео: [email protected], 25.00fps, 2151 Kbps, 0.251 bit/pixel
Аудио: 48.0 KHz, 6 ch, 448 Kbps
General
Complete name : C:\Moja.bezumnaja.semja.2011.DVDRip-AVC.zyyx.mkv
Format : Matroska
File size : 1.46 GiB
Duration : 1h 20mn
Overall bit rate : 2 599 Kbps
Encoded date : UTC 2012-02-23 03:56:32
Writing application : mkvmerge v4.6.0 ('Still Crazy After All These Years') сборка от Mar 13 2011 18:33:29
Writing library : libebml v1.2.0 + libmatroska v1.1.0
Video
ID : 1
Format : AVC
Format/Info : Advanced Video Codec
Format profile : [email protected]
Format settings, CABAC : Yes
Format settings, ReFrames : 16 frames
Muxing mode : Container [email protected]
Codec ID : V_MPEG4/ISO/AVC
Duration : 1h 20mn
Bit rate : 2 100 Kbps
Nominal bit rate : 2 151 Kbps
Width : 720 pixels
Height : 464 pixels
Display aspect ratio : 2.2:1
Frame rate : 25.000 fps
Resolution : 24 bits
Colorimetry : 4:2:0
Scan type : Progressive
Bits/(Pixel*Frame) : 0.251
Stream size : 1.18 GiB (81%)
Writing library : x264 core 114 r1924 08d04a4
Audio
ID : 2
Format : AC-3
Format/Info : Audio Coding 3
Codec ID : A_AC3
Duration : 1h 20mn
Bit rate mode : Constant
Bit rate : 448 Kbps
Channel(s) : 6 channels
Channel positions : Front: L C R, Surround: L R, LFE
Sampling rate : 48.0 KHz
Stream size : 258 MiB (17%)
Download / Скачать

Хотите скачать бесплатно? Зарегистрируйтесь на сайте (ссылка на регистрацию). Pirat.ca - самый быстрый торрент трекер в рунете!

Как скачивать  ·   Что такое торрент  ·   Рейтинг и ограничения

Пост 23-Фев-2012 09:44 (спустя 1 час 12 минут)

Топик был перенесен из форума Наше Кино в форум Новинки (HD|DVD|BD|TV|SAT|PDTV| - Rips)

Skinwalker
 

sorvigolova

Корсар

799

Пост 23-Фев-2012 09:59 (спустя 1 час 27 минут)

[Q] 

[Профиль]  [ЛС] 

Mormynt

Морской Волк

Пост 23-Фев-2012 11:45 (спустя 1 час 45 минут)

[Q] 

Смотрибельно?

_________________
Все, что в жизни я трачу на себя - пропадает бесследно, все, что раздаю другим, остается со мной!!!
[Профиль]  [ЛС] 

citrus

Морской Волк

Пост 24-Фев-2012 12:08 (спустя 1 день)

[Q] 

[Профиль]  [ЛС] 

alex3000

Шкипер

Пост 29-Фев-2012 19:09 (спустя 5 дней)

[Q] 

[Профиль]  [ЛС] 

Серегазмей

Корсар

186

Пост 01-Мар-2012 03:23 (спустя 8 часов)

[Q] 

Смотреть-то можно?

_________________
[Профиль]  [ЛС] 

S_N_A_K_E

Флибустьер

Пост 01-Мар-2012 05:02 (спустя 1 час 39 минут)

[Q] 

на разок сойдёт...
[Профиль]  [ЛС] 

Пост 29-Мар-2012 15:00 (спустя 28 дней)

Топик был перенесен из форума Новинки (HD|DVD|BD|TV|SAT|PDTV| - Rips) в форум Российские фильмы

ara1205
 
Показать сообщения:    
Ответить на тему

Текущее время: Сегодня 20:20

Часовой пояс: GMT + 4



Вы не можете начинать темы
Вы не можете отвечать на сообщения
Вы не можете редактировать свои сообщения
Вы не можете удалять свои сообщения
Вы не можете голосовать в опросах
Вы не можете прикреплять файлы к сообщениям
Вы не можете скачивать файлы

▼ Вниз