ML
     
  Уважаемый Гость!
Вы можете поддержать проект и зарегистрироваться у наших партнеров - онлайн-стратегия MyLands. При регистрации в игре Вы получите код, который сможете активировать после регистрации на pirat.ca и получить 1000 дублонов.

Ваш код:
8b29d0f8cd61fe457e59e7df0aa1fab41a2b88b9
 
     

День победы (Фёдор Петрухин) [2006 г., Военный фильм, DVDRip]

Ответить на тему
 
Автор
Сообщение

Пост 23-Фев-2012 09:39

[Q] 

megamastor

День победы
Год выпуска: 2006
Жанр: Военный фильм
Продолжительность: 01:15:03
Режиссер: Фёдор Петрухин
В ролях: Д.Дюжев, В.Сергачев, Е.Клейменов, А.Кузнецов, С.Молдаханов, А.Скляр, М.Негин, В.Скороходова, С.Проценко, М.Максимов, Д.Гнедовец, И.Волков, О.Васильков, Н.Стамбула, Б.Токарев, Ф.Смирнов, А.Печенин, В.Терещенко, О.Шеремет, Н.Щурок
Описание: Начало Великой Отечественной войны. Только что сформированную роту штрафников после марша бросают в бой. Они должны пройти по минному полю, чтобы расчистить путь основным боевым силам. Умирать не хочется никому, но отступать некуда.
Много лет спустя в день празднования Победы на Ходынском поле во время репетиции парада встречаются два ветерана. Прошло много лет, оба очень изменились и потому не сразу узнают друг друга. Старики помнят один-единственный, первый в их жизни настоящий бой с врагом, кровавый и жестокий. Это сражение нельзя забыть. Тогда из всей штрафной роты в живых осталось только двое...
Источник/Качество: DVDRip
Формат: AVI
Видео кодек: XviD
Аудио кодек: AC3
Аудио:48 kHz, MPEG Layer 3, 2 ch, ~128.00 kbps avg
Видео: 720x400 (1.12), 25 fps, XviD 1.2.0 ~2571 Кбит/сек avg, 0.28 bit/pixel
Общее
Полное имя : D:\Piratca\Repair\Den Pobedi.2006.O.DVDRip.avi
Формат : AVI
Формат/Информация : Audio Video Interleave
Размер файла : 1,37 Гбайт
Продолжительность : 1 ч. 12 м.
Общий поток : 2707 Кбит/сек
Программа кодирования : VirtualDubMod 1.5.4.1 (build 2178/release)
Библиотека кодирования : VirtualDubMod build 2178/release
Видео
Идентификатор : 0
Формат : MPEG-4 Visual
Профиль формата : Advanced [email protected]
Параметр BVOP формата : Нет
Параметр QPel формата : Нет
Параметр GMC формата : Без точки перехода
Параметр матрицы формата : Выборочная
Идентификатор кодека : XVID
Идентификатор кодека/Подсказка : XviD
Продолжительность : 1 ч. 12 м.
Битрейт : 2571 Кбит/сек
Ширина : 720 пикселей
Высота : 400 пикселей
Соотношение сторон : 16:9
Частота кадров : 25,000 кадров/сек
Цветовое пространство : YUV
Субдискретизация насыщенности : 4:2:0
Битовая глубина : 8 бит
Тип развёртки : Прогрессивная
Метод сжатия : С потерями
Бит/(Пиксели*Кадры) : 0.357
Размер потока : 1,30 Гбайт (95%)
Библиотека кодирования : XviD 1.2.0.dev47 (UTC 2006-11-01)
Аудио
Идентификатор : 1
Формат : MPEG Audio
Версия формата : Version 1
Профиль формата : Layer 3
Идентификатор кодека : 55
Идентификатор кодека/Подсказка : MP3
Продолжительность : 1 ч. 12 м.
Вид битрейта : Постоянный
Битрейт : 128 Кбит/сек
Каналы : 1 канал
Частота : 48,0 КГц
Метод сжатия : С потерями
Размер потока : 66,1 Мбайт (5%)
Выравнивание : Соединение по промежуткам
Продолжительность промежутка : 80 мс. (2,00 видеокадра)
Время предзагрузки промежутка : 504 мс.
Библиотека кодирования : LAME3.97
Настройки программы : -m m -V 4 -q 2 -lowpass 20.5 -b 128
Язык : English
Download / Скачать

Хотите скачать бесплатно? Зарегистрируйтесь на сайте (ссылка на регистрацию). Pirat.ca - самый быстрый торрент трекер в рунете!

Как скачивать  ·   Что такое торрент  ·   Рейтинг и ограничения



Последний раз редактировалось: megamastor (2012-02-23 10:06), всего редактировалось 1 раз

Пост 23-Фев-2012 10:00 (спустя 21 минута)

Топик был перенесен из форума Наше Кино в форум Российские фильмы

Skinwalker
 

megamastor ®

2827

Пост 25-Фев-2012 09:56 (спустя 2 дня)

[Q] 

На раздаче 24/7, С с 2:00 до 10:00 мск скорость выше
[Профиль]  [ЛС] 
Показать сообщения:    
Ответить на тему

Текущее время: Сегодня 21:23

Часовой пояс: GMT + 4



Вы не можете начинать темы
Вы не можете отвечать на сообщения
Вы не можете редактировать свои сообщения
Вы не можете удалять свои сообщения
Вы не можете голосовать в опросах
Вы не можете прикреплять файлы к сообщениям
Вы не можете скачивать файлы

▼ Вниз