ML
     
  Уважаемый Гость!
Вы можете поддержать проект и зарегистрироваться у наших партнеров - онлайн-стратегия MyLands. При регистрации в игре Вы получите код, который сможете активировать после регистрации на pirat.ca и получить 1000 дублонов.

Ваш код:
93dbf9fbdfa06c41d3b5a2c3921149ba36168c41
 
     

Земля людей (Сергей Говорухин) [2011 г., драма, DVDRip]

Ответить на тему
 
Автор
Сообщение

Пост 23-Фев-2012 12:05

[Q] 

Amethyst

Земля людей
Год выпуска: 2011
Жанр: драма
Продолжительность: 01:44:23
Режиссер: Сергей Говорухин
В ролях: Александр Скотников, Анна Тараторкина, Сергей Шнырев, Татьяна Колганова, Николай Денисов, Евгений Ермаков, Константин Балакирев, Станислав Стрелков, Татьяна Клюкина, Василий Шемякинский
Описание: Талантливый, но невостребованный писатель Алексей Комаров возвращается в Москву из Воркуты, где работал старателем на северных приисках. Возвращается в новый, жестокий и уничтожающий мир столичной Москвы, где власть и деньги правят умами, и давно не в цене нравственность и настоящая, талантливая литература.

Источник/Качество: DVDRip
Формат: AVI
Видео кодек: XviD
Аудио кодек: AC3
Видео: XviD, 720x400 (16:9), 1418 kb/s, 25.000 fps, 0.197
Аудио: AC3, 448 kb/s, 2 ch, 48.0 kHz
Общее
Полное имя : D:\Торенты\Zemlya lyudey.2011.O.DVDRip.[pirat.ca].avi
Формат : AVI
Формат/Информация : Audio Video Interleave
Размер файла : 1,37 Гбайт
Продолжительность : 1 ч. 44 м.
Общий поток : 1876 Кбит/сек
Название фильма : Zemlja.ljudej.2011.O.DVDRip.[pirat.ca]
Режиссёр : Сергей Говорухин
Программа кодирования : VirtualDubMod 1.5.10.2 (build 2540/release)
Правообладатель : [pirat.ca]
Видео
Идентификатор : 0
Формат : MPEG-4 Visual
Профиль формата : Advanced [email protected]
Параметр BVOP формата : 2
Параметр QPel формата : Нет
Параметр GMC формата : Без точки перехода
Параметр матрицы формата : Выборочная
Идентификатор кодека : XVID
Идентификатор кодека/Подсказка : XviD
Продолжительность : 1 ч. 44 м.
Битрейт : 1418 Кбит/сек
Ширина : 720 пикселей
Высота : 400 пикселей
Соотношение сторон : 16:9
Частота кадров : 25,000 кадров/сек
Цветовое пространство : YUV
Субдискретизация насыщенности : 4:2:0
Битовая глубина : 8 бит
Тип развёртки : Прогрессивная
Метод сжатия : С потерями
Бит/(Пиксели*Кадры) : 0.197
Размер потока : 1,03 Гбайт (76%)
Библиотека кодирования : XviD 1.2.1 (UTC 2008-12-04)
Аудио
Идентификатор : 1
Формат : AC-3
Формат/Информация : Audio Coding 3
Расширение режима : CM (complete main)
Идентификатор кодека : 2000
Продолжительность : 1 ч. 44 м.
Вид битрейта : Постоянный
Битрейт : 448 Кбит/сек
Каналы : 2 канала
Расположение каналов : Front: L R
Частота : 48,0 КГц
Битовая глубина : 16 бит
Метод сжатия : С потерями
Размер потока : 335 Мбайт (24%)
Выравнивание : Соединение по промежуткам
Продолжительность промежутка : 40 мс. (1,00 видеокадр)
Время предзагрузки промежутка : 512 мс.
Download / Скачать

Хотите скачать бесплатно? Зарегистрируйтесь на сайте (ссылка на регистрацию). Pirat.ca - самый быстрый торрент трекер в рунете!

Как скачивать  ·   Что такое торрент  ·   Рейтинг и ограничения



Последний раз редактировалось: Amethyst (2012-02-23 13:20), всего редактировалось 1 раз

Пост 23-Фев-2012 13:09 (спустя 1 час 3 минуты)

Топик был перенесен из форума Наше Кино в форум Новинки (HD|DVD|BD|TV|SAT|PDTV| - Rips)

Skinwalker
 

xxxLOGICxxx

Корсар

Пост 23-Фев-2012 13:49 (спустя 1 час 44 минуты)

[Q] 

[Профиль]  [ЛС] 

bruder

Флибустьер

Пост 23-Фев-2012 23:16 (спустя 9 часов)

[Q] 

Режиссер: Сергей Говорухин
Не сын ли это Станислава Говорухина?
Фильм забираю, спасибо!

_________________
[Профиль]  [ЛС] 

baldi

Штурман

5

Пост 24-Фев-2012 01:21 (спустя 2 часа 5 минут)

[Q] 

так то да
http://ru.wikipedia.org/wiki/%D0%93%D0%BE%D0%B2%D0%BE%D1%80%D1%83%D1%85%D0%B8%D0%BD,_%D0%A1%D0%B5%D1%80%D0%B3%D0%B5%D0%B9_%D0%A1%D1%82%D0%B0%D0%BD%D0%B8%D1%81%D0%BB%D0%B0%D0%B2%D0%BE%D0%B2%D0%B8%D1%87
умер он недавно
[Профиль]  [ЛС] 

Пост 14-Мар-2012 14:20 (спустя 19 дней)

Топик был перенесен из форума Новинки (HD|DVD|BD|TV|SAT|PDTV| - Rips) в форум Российские фильмы

ara1205
 
Показать сообщения:    
Ответить на тему

Текущее время: Сегодня 20:23

Часовой пояс: GMT + 4



Вы не можете начинать темы
Вы не можете отвечать на сообщения
Вы не можете редактировать свои сообщения
Вы не можете удалять свои сообщения
Вы не можете голосовать в опросах
Вы не можете прикреплять файлы к сообщениям
Вы не можете скачивать файлы

▼ Вниз