ML
     
  Уважаемый Гость!
Вы можете поддержать проект и зарегистрироваться у наших партнеров - онлайн-стратегия MyLands. При регистрации в игре Вы получите код, который сможете активировать после регистрации на pirat.ca и получить 1000 дублонов.

Ваш код:
4399ab8611ee7f8a22949d2ee7634160dd2db7e0
 
     

Кремень (Алексей Мизгирев) [2007 г., криминальная драма, DVDRip]

Ответить на тему
 
Автор
Сообщение

Пост 23-Фев-2012 16:26

[Q] 

megamastor

Кремень
Год выпуска: 2007
Жанр: криминальная драма
Продолжительность: 01:21:00
Режиссер: Алексей Мизгирев
В ролях: Евгений Антропов, Дмитрий Куличков, Анастасия Безбородова, Сергей Шеховцов, Карен Бадалов, Александр Голубев, Татьяна Насташевская, Олег Васильков, Сахат Дурсунов, Александр Скотников, Вероника Ким, Олег Билик, Алексей Агрызков, Виктор Алферов, Павел Мирзоев
Описание: Современная Москва — глянцевая, европейская, жесткая. Город надежд и обманутых ожиданий. Здесь действует закон выживания. Побеждает сильнейший. Антон приезжает в столицу за любимой девушкой. Она отвергает его. Но он не привык отступать. Ему приходиться стать своим в чужом городе. Ради своей цели Антон готов на все. У него — свои правила. Он — "Кремень".
Доп. информация: • 2007г. - Приз за лучший дебют на ОРКФ "Кинотавр" в Сочи (Алексей Мизгирев).
• 2007г. - Приз им. Г. Горина за лучший сценарий на ОРКФ "Кинотавр" в Сочи (Алексей Мизгирев).
• 2007г. - Гран-при на МФ фильмов о правах человека "Сталкер" в Москве (Алексей Мизгирев).
• 2007г. - Приз жюри на МКФ в Марокко (Алексей Мизгирев).
• 2007г. - Приз им. Р. Фассбиндера на МКФ в Мангейме (Алексей Мизгирев).
Источник/Качество: DVDRip
Формат: AVI
Видео: 704x384 (1.83:1), 25 fps, XviD build 50 ~2118 kbps avg, 0.31 bit/pixel
Аудио: (rus) 48 kHz, AC3 Dolby Digital, 3/2 (L,C,R,l,r) + LFE ch, ~448.00 kbps avg
Общее
Полное имя : D:\Piratca\Repair\Kremen'.2007.avi
Формат : AVI
Формат/Информация : Audio Video Interleave
Размер файла : 1,46 Гбайт
Продолжительность : 1 ч. 21 м.
Общий поток : 2576 Кбит/сек
Режиссёр : zim2001
Программа кодирования : VirtualDubMod 1.5.10.2 (build 2540/release)
Видео
Идентификатор : 0
Формат : MPEG-4 Visual
Профиль формата : Advanced [email protected]
Параметр BVOP формата : 1
Параметр QPel формата : Нет
Параметр GMC формата : Без точки перехода
Параметр матрицы формата : Выборочная
Идентификатор кодека : XVID
Идентификатор кодека/Подсказка : XviD
Продолжительность : 1 ч. 21 м.
Битрейт : 2119 Кбит/сек
Ширина : 704 пикселя
Высота : 384 пикселя
Соотношение сторон : 16:9
Частота кадров : 25,000 кадров/сек
Цветовое пространство : YUV
Субдискретизация насыщенности : 4:2:0
Битовая глубина : 8 бит
Тип развёртки : Прогрессивная
Метод сжатия : С потерями
Бит/(Пиксели*Кадры) : 0.314
Размер потока : 1,20 Гбайт (82%)
Библиотека кодирования : XviD 1.2.1 (UTC 2008-12-04)
Аудио
Идентификатор : 1
Формат : AC-3
Формат/Информация : Audio Coding 3
Расширение режима : CM (complete main)
Идентификатор кодека : 2000
Продолжительность : 1 ч. 20 м.
Вид битрейта : Постоянный
Битрейт : 448 Кбит/сек
Каналы : 6 каналов
Расположение каналов : Front: L C R, Side: L R, LFE
Частота : 48,0 КГц
Битовая глубина : 16 бит
Метод сжатия : С потерями
Размер потока : 260 Мбайт (17%)
Выравнивание : Разделение по промежуткам
Продолжительность промежутка : 40 мс. (1,00 видеокадр)
Время предзагрузки промежутка : 500 мс.
Download / Скачать

Хотите скачать бесплатно? Зарегистрируйтесь на сайте (ссылка на регистрацию). Pirat.ca - самый быстрый торрент трекер в рунете!

Как скачивать  ·   Что такое торрент  ·   Рейтинг и ограничения



Последний раз редактировалось: megamastor (2012-02-24 08:12), всего редактировалось 2 раз(а)

Пост 24-Фев-2012 10:35 (спустя 18 часов)

Топик был перенесен из форума Наше Кино в форум Российские фильмы

Skinwalker
 

ficus42

Корсар

Пост 24-Фев-2012 12:06 (спустя 19 часов)

[Q] 

Будем посмотреть.
[Профиль]  [ЛС] 

megamastor ®

2827

Пост 25-Фев-2012 09:51 (спустя 21 час)

[Q] 

Резкий парень!
[Профиль]  [ЛС] 

sergey-309

Морской Волк

Пост 25-Апр-2012 22:25 (спустя 2 месяца)

[Q] 

[Профиль]  [ЛС] 

god5

Штурман

Пост 14-Янв-2013 18:52 (спустя 8 месяцев 18 дней)

[Q] 

Нада посмотреть, есть 2012 года фильм тот очень понравился.
[Профиль]  [ЛС] 

U-858

Флибустьер

Пост 15-Окт-2014 22:23 (спустя 1 год 9 месяцев)

[Q] 

муть полная, хрень.
[Профиль]  [ЛС] 

kisu

Гроза морей

Пост 26-Окт-2014 19:03 (спустя 10 дней)

[Q] 

ну к сериалу это отношение не имеет!
[Профиль]  [ЛС] 

ouum

Шкипер

Пост 07-Янв-2015 05:45 (спустя 2 месяца 11 дней)

[Q] 

Раздающему спасибо. Фильм хрень.
[Профиль]  [ЛС] 

Alex270

Шкипер

Пост 11-Фев-2015 08:26 (спустя 1 месяц 4 дня)

[Q] 

Полная хрень bu
[Профиль]  [ЛС] 
Показать сообщения:    
Ответить на тему

Текущее время: Сегодня 10:44

Часовой пояс: GMT + 4



Вы не можете начинать темы
Вы не можете отвечать на сообщения
Вы не можете редактировать свои сообщения
Вы не можете удалять свои сообщения
Вы не можете голосовать в опросах
Вы не можете прикреплять файлы к сообщениям
Вы не можете скачивать файлы

▼ Вниз