ML
     
  Уважаемый Гость!
Вы можете поддержать проект и зарегистрироваться у наших партнеров - онлайн-стратегия MyLands. При регистрации в игре Вы получите код, который сможете активировать после регистрации на pirat.ca и получить 1000 дублонов.

Ваш код:
2fd4e750dd89cae3a36ea360f2b345ccfeb562d3
 
     

Комедия строгого режима (В. Студенников, М. Григорьев) [1992 г., комедия-гротеск, DVDRip]

Ответить на тему
 
Автор
Сообщение

Пост 24-Фев-2012 00:04

[Q] 

Амангельды

Комедия строгого режима Год выпуска: 1992
Премьера: ноябрь 1992
Жанр: комедия-гротеск
Продолжительность: 01:16:11
Производство: СП "Краун"
Держатель лицензии: Студия «48 часов»
Дистрибьютор: Ленфильм Видео
Авторы сценария и режиссеры: Владимир Студенников, Михаил Григорьев
Описание: Чтобы отличиться перед высоким начальством, руководство колонии решает силами заключенных поставить эволюционный спектакль к 100-летию Ленина. Заключенные, играя роль, перевоплощаются в своих персонажей, и, воодушевившись революционным задором, готовят побег. Ленин, Троцкий, Дзержинский, Свердлов, начальник тюрьмы, рецидивист и мелкий воришка - такую сердечную компанию трудноотличимых друг от друга персонажей вдруг увидела вся страна на экране в 1992 году.

Качество: DVDRip
Формат: AVI
Видео кодек: XviD
Аудио кодек: AC3
Видео: 720x544 (1.32:1), 25 fps, XviD build 41 ~2363 kbps avg, 0.24 bit/pixel
Аудио: 48 kHz, AC3 Dolby Digital, 2/0 (L,R) ch, ~192.00 kbps avg
Виктор Сухоруков — з/к Григорий Зуев, играет Ленина
Иван Криворучко — Капитан, замполит ИТУ № 7
Надежда Жарикова — кладовщица Зоя Васильевна Коровина, играет комиссара Антонину Аникееву
Юрий Вьюшин — з/к Славик Сверчков, играет матроса Фёдора
Станислав Концевич — з/к Лившиц, играет Свердлова
Лев Кубарев — з/к, играющий рабочего Василия
Виктор Соловьёв — з/к, играющий Дзержинского
Константин Демидов — рядовой Васильев, режиссёр тюремного спектакля
Виктор Михайлов — майор, начальник ИТУ № 7
Владимир Калиш — генерал
Анатолий Сливников — прапорщик Смолярчук
Евгений Меркурьев — з/к, играющий меньшевика-ренегата
Юрий Эллер — з/к Шевченко, исполняющий монтаж стихов Маяковского
Юрий Костыгин
Виктор Иванов
Сергей Селин — з/к Серёга, повар
Вячеслав Яковлев — охранник
Игорь Вуколов — з/к Ламидзе, гримёр спектакля
Юрий Соловьев
Владимир Ермилов
Р. Новиков
Формат : AVI
Формат/Информация : Audio Video Interleave
Размер файла : 1,36 Гбайт
Продолжительность : 1 ч. 16 м.
Общий поток : 2562 Кбит/сек
Программа кодирования : VirtualDub-MPEG2-Rus 1.5.4.1 (build 2178/release)
Библиотека кодирования : VirtualDubMod build 2178/release
Видео
Идентификатор : 0
Формат : MPEG-4 Visual
Профиль формата : Advanced [email protected]
Параметр BVOP формата : 1
Параметр QPel формата : Нет
Параметр GMC формата : Без точки перехода
Параметр матрицы формата : Выборочная
Идентификатор кодека : XVID
Идентификатор кодека/Подсказка : XviD
Продолжительность : 1 ч. 16 м.
Битрейт : 2363 Кбит/сек
Ширина : 720 пикс.
Высота : 544 пикс.
Соотношение сторон : 4:3
Частота кадров : 25,000 кадр/сек
Цветовое пространство : YUV
Подвыборка цветности : 4:2:0
Битовая глубина : 8 бит
Тип развёртки : Прогрессивная
Метод сжатия : С потерями
Бит/(Пиксели*Кадры) : 0.241
Размер потока : 1,26 Гбайт (92%)
Библиотека кодирования : XviD 1.1.0 (UTC 2005-11-22)
Аудио
Идентификатор : 1
Формат : AC-3
Формат/Информация : Audio Coding 3
Расширение режима : CM (complete main)
Идентификатор кодека : 2000
Продолжительность : 1 ч. 16 м.
Вид битрейта : Постоянный
Битрейт : 192 Кбит/сек
Канал(ы) : 2 канала(ов)
Расположение каналов : Front: L R
Частота : 48,0 КГц
Битовая глубина : 16 бит
Метод сжатия : С потерями
Размер потока : 105 Мбайт (7%)
Выравнивание : Разделение по промежуткам
Продолжительность промежутка : 96 мс. (2,40 видеокадров)
Время предзагрузки промежутка : 96 ms
Язык : Russian
Герои осуществляют побег на паровозе Ов?324. Ворота проламывает паровоз, на котором также написано «Ов?324», но вот сам паровоз в тот момент меняется на Э.
Этот же паровоз был использован при съемках фильма «Про уродов и людей». На его борту такой же номер «Ов?324»
На момент действия фильма (1970 год) в войсках и органах МВД СССР, как и в армии, отсутствовало звание «прапорщик». Институт прапорщиков введен в 1972 году.
Форма одежды сотрудников охраны ИТУ соответствует концу 80-х годов. На момент событий фильма она выглядела несколько иначе.
З/к Зуев имеет кличку «Плешак», совпадающую с фамилией композитора фильма.
В конце фильма, когда з/к, возглавляемые «вождём» садятся в паровоз и разводят пары, на шатуне колёсного привода явственно видна «звезда Давида»
Приз за лучшую мужскую роль (Виктор Сухоруков) на кинофестивале "Созвездие-92".
Приз за лучшую мужскую роль (Виктор Сухоруков) на третьем Фестивале российского кино в Онфлере (Франция)
Download / Скачать

Хотите скачать бесплатно? Зарегистрируйтесь на сайте (ссылка на регистрацию). Pirat.ca - самый быстрый торрент трекер в рунете!

Как скачивать  ·   Что такое торрент  ·   Рейтинг и ограничения

Пост 24-Фев-2012 00:15 (спустя 10 минут)

Топик был перенесен из форума Наше Кино в форум Российские фильмы

Skinwalker
 

Luzhok

Легенда

Пост 24-Фев-2012 00:39 (спустя 35 минут)

[Q] 

взял
Амангельды, спасибо!
[Профиль]  [ЛС] 

Амангельды ®

35486

Пост 24-Фев-2012 00:42 (спустя 2 минуты)

[Q] 

Luzhok, однако, быстро... 3мб/c az

_________________

Товарищ, верь, пройдет она,
Так называемая гласность.
И вот тогда госбезопасность
Припомнит ваши имена
Раздачи от Амангельды - ТЫНЦ
[Профиль]  [ЛС] 

LETHIK2010

Морской Волк

Пост 24-Фев-2012 09:41 (спустя 8 часов)

[Q] 

Спасибо. Давно искал.
[Профиль]  [ЛС] 

Амангельды ®

35486

Пост 24-Фев-2012 10:03 (спустя 22 минуты)

[Q] 

LETHIK2010, az

_________________

Товарищ, верь, пройдет она,
Так называемая гласность.
И вот тогда госбезопасность
Припомнит ваши имена
Раздачи от Амангельды - ТЫНЦ
[Профиль]  [ЛС] 

wirtual

Гроза морей

Пост 24-Фев-2012 18:50 (спустя 8 часов)

[Q] 


_________________
не будешь делиться - останешься одноклеточным
[Профиль]  [ЛС] 

ksg111ban

Гроза морей

Пост 04-Мар-2012 23:07 (спустя 9 дней)

[Q] 

Ничего так, можно посмеятся

_________________
[Профиль]  [ЛС] 

Паппик

Корсар

1529

Пост 05-Мар-2012 19:42 (спустя 20 часов)

[Q] 

Спасибо, улыбнуло.
[Профиль]  [ЛС] 

bmf2000

Корсар

Пост 09-Мар-2012 10:48 (спустя 3 дня)

[Q] 

[Профиль]  [ЛС] 

Sergi4

Гроза морей

Пост 15-Мар-2012 12:07 (спустя 6 дней)

[Q] 

Спасибо!
[Профиль]  [ЛС] 

abc7

Гроза морей

464

Пост 17-Мар-2012 00:10 (спустя 1 день 12 часов)

[Q] 

[Профиль]  [ЛС] 

ya.nikon1971

Лоцман

Пост 17-Мар-2012 00:17 (спустя 6 минут)

[Q] 

Господа-это Довлатов!!1
[Профиль]  [ЛС] 

Амангельды ®

35486

Пост 17-Мар-2012 07:26 (спустя 7 часов)

[Q] 

ya.nikon1971, некоторые считают фильм вольной экранизацией фрагмента произведения «Зона» Сергея Довлатова.
Как-то так...

_________________

Товарищ, верь, пройдет она,
Так называемая гласность.
И вот тогда госбезопасность
Припомнит ваши имена
Раздачи от Амангельды - ТЫНЦ
[Профиль]  [ЛС] 

Wolf111

57057

Пост 14-Янв-2013 18:02 (спустя 9 месяцев 28 дней)

[Q] 

Помогу раздавать
[Профиль]  [ЛС] 
Показать сообщения:    
Ответить на тему

Текущее время: Сегодня 14:14

Часовой пояс: GMT + 4



Вы не можете начинать темы
Вы не можете отвечать на сообщения
Вы не можете редактировать свои сообщения
Вы не можете удалять свои сообщения
Вы не можете голосовать в опросах
Вы не можете прикреплять файлы к сообщениям
Вы не можете скачивать файлы

▼ Вниз