ML
     
  Уважаемый Гость!
Вы можете поддержать проект и зарегистрироваться у наших партнеров - онлайн-стратегия MyLands. При регистрации в игре Вы получите код, который сможете активировать после регистрации на pirat.ca и получить 1000 дублонов.

Ваш код:
4855957e17f50c5c1236a0f8c4492b2b0bba00a0
 
     

Я покажу тебе Москву (Александр Котт) [2009 г., Криминальная драма, DVDRip]

Ответить на тему
 
Автор
Сообщение

Пост 24-Фев-2012 15:29

[Q] 

megamastor

Я покажу тебе Москву
Год выпуска: 2009
Жанр: Криминальная драма
Продолжительность: 01:28:13
Режиссер: Александр Котт
В ролях: Александр Скотников, Владимир Яглыч, Полина Филоненко, Владимир Стеклов, Максим Коновалов, Анастасия Мельникова
Описание: Андрей Котельников написал письмо армейскому другу, сибиряку Толику Рыбалкину, рассказав, что учится, работает охранником, и закончил словами: "приезжай, Москву тебе покажу". Друг приехал без предупреждения. Андрей повел его гулять по городу. До утра они шатались по казино, стрип-барам и ночным клубам, сорили деньгами Толика. Вместе сфотографировались на мобильник Андрея. На память Андрей скопировал фото в телефоне друга. Домой они вернулись вместе с проститутками, а на следующий день повздорили. Толик собрал свои вещи и ушёл. Во время обеденного перерыва, Андрей отправился за едой для себя и своего напарника Старшого. В его отсутствие в салон ворвались переодетые инкассаторами грабители, и перестреляли всех. Ни о чём не подозревающий, Андрей возвращался на своё рабочее место, когда у входа в салон его окликнул Толик, а дальше удар по голове битой и полная потеря сознания. В себя Андрей пришёл только в больничной палате; возле его кровати сидел следователь по особо важным делам Дмитрий Юрьевич Говоров. От него Котельников узнал о случившемся. Грабители, перестреляв служащих, благополучно скрылись вместе с похищенным золотом.
Источник/Качество: DVDRip
Формат: AVI
Видео кодек: XviD
Аудио кодек: AC3
Видео: 704x384 (1.28), 25 fps, XviD 1.0.3 1756 Кбит/сек, 0.26 bit/pixel
Аудио: 48 kHz, MPEG Layer 3, 2 ch, 448.00 kbps
Общее
Полное имя : D:\Piratca\Repair\Ja.pokazhu.tebe.moskvu.[pirat.ka].avi
Формат : AVI
Формат/Информация : Audio Video Interleave
Размер файла : 1,36 Гбайт
Продолжительность : 1 ч. 28 м.
Общий поток : 2214 Кбит/сек
Программа кодирования : VirtualDubMod 1.5.10.2 (build 2540/release)
Библиотека кодирования : VirtualDubMod build 2540/release
Видео
Идентификатор : 0
Формат : MPEG-4 Visual
Профиль формата : Advanced [email protected]
Параметр BVOP формата : 2
Параметр QPel формата : Нет
Параметр GMC формата : Без точки перехода
Параметр матрицы формата : Default (MPEG)
Режим смешивания : Сжатый битовый поток
Идентификатор кодека : XVID
Идентификатор кодека/Подсказка : XviD
Продолжительность : 1 ч. 28 м.
Битрейт : 1756 Кбит/сек
Ширина : 704 пикселя
Высота : 384 пикселя
Соотношение сторон : 16:9
Частота кадров : 25,000 кадров/сек
Цветовое пространство : YUV
Субдискретизация насыщенности : 4:2:0
Битовая глубина : 8 бит
Тип развёртки : Прогрессивная
Метод сжатия : С потерями
Бит/(Пиксели*Кадры) : 0.260
Размер потока : 1,08 Гбайт (79%)
Библиотека кодирования : XviD 1.0.3 (UTC 2004-12-20)
Аудио
Идентификатор : 1
Формат : AC-3
Формат/Информация : Audio Coding 3
Расширение режима : CM (complete main)
Идентификатор кодека : 2000
Продолжительность : 1 ч. 28 м.
Вид битрейта : Постоянный
Битрейт : 448 Кбит/сек
Каналы : 6 каналов
Расположение каналов : Front: L C R, Side: L R, LFE
Частота : 48,0 КГц
Битовая глубина : 16 бит
Метод сжатия : С потерями
Размер потока : 283 Мбайт (20%)
Выравнивание : Разделение по промежуткам
Продолжительность промежутка : 40 мс. (1,00 видеокадр)
Время предзагрузки промежутка : 500 мс.
Download / Скачать

Хотите скачать бесплатно? Зарегистрируйтесь на сайте (ссылка на регистрацию). Pirat.ca - самый быстрый торрент трекер в рунете!

Как скачивать  ·   Что такое торрент  ·   Рейтинг и ограничения

Пост 24-Фев-2012 15:50 (спустя 20 минут)

Топик был перенесен из форума Наше Кино в форум Российские фильмы

Skinwalker
 

ksg111ban

Гроза морей

Пост 24-Фев-2012 21:06 (спустя 5 часов)

[Q] 


_________________
[Профиль]  [ЛС] 

megamastor ®

2827

Пост 25-Фев-2012 09:24 (спустя 12 часов)

[Q] 

ksg111ban, а кнопочку спсибо нажать cx
[Профиль]  [ЛС] 

bruder

Флибустьер

Пост 12-Мар-2012 22:55 (спустя 16 дней)

[Q] 

Очень даже неплохой фильм!
Кнопочка жмакнута.

_________________
[Профиль]  [ЛС] 
Показать сообщения:    
Ответить на тему

Текущее время: Сегодня 06:15

Часовой пояс: GMT + 4



Вы не можете начинать темы
Вы не можете отвечать на сообщения
Вы не можете редактировать свои сообщения
Вы не можете удалять свои сообщения
Вы не можете голосовать в опросах
Вы не можете прикреплять файлы к сообщениям
Вы не можете скачивать файлы

▼ Вниз