ML
     
  Уважаемый Гость!
Вы можете поддержать проект и зарегистрироваться у наших партнеров - онлайн-стратегия MyLands. При регистрации в игре Вы получите код, который сможете активировать после регистрации на pirat.ca и получить 1000 дублонов.

Ваш код:
74c28610d77aaac24ba694c4128f3b9b46b04220
 
     

Шапито-шоу: Уважение и сотрудничество (Сергей Лобан) [2011 г., комедия, DVDRip]

Ответить на тему
 
Автор
Сообщение

Пост 25-Фев-2012 01:35

[Q] 

zyyx

--Шапито-шоу: Уважение и сотрудничество-- Год выпуска: 2011
Жанр: комедия
Продолжительность: 01:50:50
Режиссер: Сергей Лобан
В ролях: Петр Мамонов, Вера Строкова, Сергей Попов, Алексей Подольский, Валерий Заводовский, Сергей Волжин-Ястребов, Юлия Говор, Дмитрий Новиков, Джим Авиньон, Сергей Кузьменко, Евгений Еровенков, Степан Девонин, Стас Барецкий, Алексей Знаменский, Максим Тиунов, Жанна Воробьева, Александр Маслаев, Александр Шпагин, Сергей Колесников, Дарья Спиридонова, Лев Сидоров, Наталья Рожкова, Галина Попова, Владимир Куляк, Роман Карпухин, Михаил Чеботарев, Антон Лебедев
Описание: Новелла Уважение. Смертельный номер! Великий мудрец, заплутавший во тьме, и его ученик, отчаянно стремящийся к свету. Они балансируют на краю пропасти, и пламя вулкана обжигает их лица. Король Лир и Звездный мальчик, их поезд судьбы стрелой несется сквозь горный тоннель. Ждет ли их свет в конце? Об этом в представлении!
Новелла Сотрудничество. Впервые в мире! Небывалое изобретение в области шоу-бизнеса! «Эрзац-звезда»! Существо, способное уничтожить любых конкурентов, и его создатель взлетят на самую вершину Олимпа, чтобы рухнуть оттуда в пучину вод. Инженер Гарин и Человек-Слон спасут или уничтожат друг друга! Это и еще многое -многое другое…!
Источник/Качество: DVDRip | Сэмпл
Формат: AVI
Видео кодек: XviD
Аудио кодек: AC3
Видео: 720x384 (1.88:1), 25 fps, XviD build 50, 1309 kbps avg, 0.19 bit/pixel
Аудио: 48 kHz, AC3 Dolby Digital, 3/2 (L,C,R,l,r) + LFE ch, 448 kbps
General
Complete name : C:\xbox\Шапито-шоу. часть 2.avi
Format : AVI
Format/Info : Audio Video Interleave
File size : 1.37 GiB
Duration : 1h 50mn
Overall bit rate : 1 768 Kbps
Writing application : VirtualDubMod 1.5.10.3 | www.virtualdub-fr.org || (build 2550/release)
Writing library : VirtualDubMod build 2550/release
Video
ID : 0
Format : MPEG-4 Visual
Format profile : [email protected]
Format settings, BVOP : Yes
Format settings, QPel : No
Format settings, GMC : No warppoints
Format settings, Matrix : Default (H.263)
Codec ID : XVID
Codec ID/Hint : XviD
Duration : 1h 50mn
Bit rate : 1 310 Kbps
Width : 720 pixels
Height : 384 pixels
Display aspect ratio : 1.875
Frame rate : 25.000 fps
Resolution : 24 bits
Colorimetry : 4:2:0
Scan type : Progressive
Bits/(Pixel*Frame) : 0.189
Stream size : 1.01 GiB (74%)
Writing library : XviD 1.2.1 (UTC 2008-12-04)
Audio
ID : 1
Format : AC-3
Format/Info : Audio Coding 3
Codec ID : 2000
Duration : 1h 50mn
Bit rate mode : Constant
Bit rate : 448 Kbps
Channel(s) : 6 channels
Channel positions : Front: L C R, Surround: L R, LFE
Sampling rate : 48.0 KHz
Stream size : 355 MiB (25%)
Alignment : Split accross interleaves
Interleave, duration : 40 ms (1.00 video frame)
Interleave, preload duration : 500 ms
Download / Скачать

Хотите скачать бесплатно? Зарегистрируйтесь на сайте (ссылка на регистрацию). Pirat.ca - самый быстрый торрент трекер в рунете!

Как скачивать  ·   Что такое торрент  ·   Рейтинг и ограничения

Eisen123

Шкипер

5

Пост 25-Фев-2012 01:58 (спустя 23 минуты)

[Q] 

Наконец-то!!!!
[Профиль]  [ЛС] 

Eisen123

Шкипер

5

Пост 25-Фев-2012 06:40 (спустя 4 часа)

[Q] 

Фильм понравился. Смотреть после просмотра первых двух новелл: Шапито-шоу: Любовь и дружба (Сергей Лобан) [2011 г., комедия, DVDRip]
[Профиль]  [ЛС] 

rezjus

Корсар

Пост 25-Фев-2012 19:41 (спустя 13 часов)

[Q] 

Спасибо. Посмотрим - оценим.
[Профиль]  [ЛС] 

Пост 26-Фев-2012 14:05 (спустя 18 часов)

Топик был перенесен из форума Наше Кино в форум Новинки (HD|DVD|BD|TV|SAT|PDTV| - Rips)

Skinwalker
 

kisu

Гроза морей

Пост 26-Фев-2012 14:37 (спустя 18 часов)

[Q] 

СПАСИБО!
[Профиль]  [ЛС] 

Ювелир

Лоцман

Пост 26-Фев-2012 15:54 (спустя 1 час 17 минут)

[Q] 

Урраааааааааааааааааааааааааааа! Наконец-то!!!!
[Профиль]  [ЛС] 

xxxLOGICxxx

Корсар

Пост 26-Фев-2012 18:54 (спустя 2 часа 59 минут)

[Q] 

[Профиль]  [ЛС] 

Yrets

Флибустьер

159

Пост 26-Фев-2012 20:26 (спустя 1 час 32 минуты)

[Q] 

Спасибо посмотрим...
[Профиль]  [ЛС] 

undeba

Лоцман

Пост 27-Фев-2012 09:47 (спустя 13 часов)

[Q] 

ошибка. отказано в доступе
[Профиль]  [ЛС] 

Kibersanya

Корсар

Пост 28-Фев-2012 12:36 (спустя 1 день 2 часа)

[Q] 

Спасибо! Заценим!!!
[Профиль]  [ЛС] 

Aleks44

Гроза морей

Пост 29-Фев-2012 12:44 (спустя 1 день)

[Q] 

Не для всех это точно качял из за рейтинга 8,1 и отзывы хорошие но после просмотра первой части вообще не понял режиссера что он пытается сказать вторую часть перемоткой посмотрел останусь на раздаче но фильм не понравился
[Профиль]  [ЛС] 

Пост 29-Мар-2012 15:59 (спустя 1 месяц)

Топик был перенесен из форума Новинки (HD|DVD|BD|TV|SAT|PDTV| - Rips) в форум Российские фильмы

ara1205
 

vik_kk

Штурман

Пост 13-Апр-2012 21:58 (спустя 1 месяц 13 дней)

[Q] 

Спасибо....
[Профиль]  [ЛС] 

metampsy

Корсар

Пост 24-Апр-2012 14:41 (спустя 10 дней)

[Q] 

Хороший фильм. Порадовал.
Жизнь многих судеб на маленьком клочке земли...
[Профиль]  [ЛС] 
Показать сообщения:    
Ответить на тему

Текущее время: Сегодня 09:58

Часовой пояс: GMT + 4



Вы не можете начинать темы
Вы не можете отвечать на сообщения
Вы не можете редактировать свои сообщения
Вы не можете удалять свои сообщения
Вы не можете голосовать в опросах
Вы не можете прикреплять файлы к сообщениям
Вы не можете скачивать файлы

▼ Вниз