ML
     
  Уважаемый Гость!
Вы можете поддержать проект и зарегистрироваться у наших партнеров - онлайн-стратегия MyLands. При регистрации в игре Вы получите код, который сможете активировать после регистрации на pirat.ca и получить 1000 дублонов.

Ваш код:
2a3da67fd641d69eeebb7cb965232435a70eaa24
 
     

Дом на краю (Владимир Чубриков) [2012 г., Боевик, Драма, Триллер, Криминальный, DVDRip]

Ответить на тему
 
Автор
Сообщение

Пост 26-Фев-2012 16:56

[Q] 

Muka1

Шкипер

Дом на краю Информация о фильме
Год выпуска: 2012
Жанр: Боевик, Драма, Триллер, Криминальный
Продолжительность: 01:31:00
Режиссер: Владимир Чубриков
В ролях: Анастасия Заворотнюк, Дмитрий Исаев, Марина Правкина, Сергей Астахов, Владислав Соловьев, Михаил Мамаев, Антон Хомятов, Сергей Дружко, Валентин Терехов
Описание
В богатом доме на Рублево-Успенском шоссе живет бизнесвумен Анна с мужем-писателем, много младше нее. Пишет он весьма посредственный и детективные истории выходят в свет только благодаря стараниям жены, которая просто спонсирует печать тиражей. С семьей живет и младшая сестра хозяйки дома, у которой нет образования, и она просто ведет хозяйство. В один прекрасный момент Анна приезжает на работу и видит первого мужа, который досрочно вышел из тюрьмы, куда угодил за валютные махинации. Бывший супруг хочет вернуть отношения, ведь у них есть общий ребенок, да и дом, в котором разворачивается действие, куплен на его деньги… Параллельно выясняется, что у младшей сестры и писателя адюльтер, она говорит, что ждет от него ребенка… И в довершении всего пропадает сын Анны, за которого похитители требуют баснословные деньги…

Источник/Качество: DVDRip
Формат: AVI
Видео кодек: XviD
Аудио кодек: AC3
Видео: XviD, 720x400, 25 fps, ~1843 Kbit/s, 0.227
Аудио: АС3, 48000 Hz, 6 каналов, 448 kbit/s
General
Complete name : C:\Users\U\Downloads\Dom.na.krayu.2011.XviD.DVDRip.avi.!ut
Format : AVI
Format/Info : Audio Video Interleave
File size : 1.46 GiB
Duration : 1h 31mn
Overall bit rate : 2 301 Kbps
Writing application : VirtualDubMod 1.5.10.2 (build 2540/release)
Writing library : VirtualDubMod build 2540/release
Video
ID : 0
Format : MPEG-4 Visual
Format profile : Advanced [email protected]
Format settings, BVOP : 1
Format settings, QPel : No
Format settings, GMC : No warppoints
Format settings, Matrix : Default (MPEG)
Codec ID : XVID
Codec ID/Hint : XviD
Duration : 1h 31mn
Bit rate : 1 632 Kbps
Width : 720 pixels
Height : 400 pixels
Display aspect ratio : 16:9
Frame rate : 25.000 fps
Color space : YUV
Chroma subsampling : 4:2:0
Bit depth : 8 bits
Scan type : Progressive
Compression mode : Lossy
Bits/(Pixel*Frame) : 0.227
Stream size : 703 MiB (47%)
Writing library : XviD 1.2.1 (UTC 2008-12-04)
Audio
ID : 1
Format : AC-3
Format/Info : Audio Coding 3
Mode extension : CM (complete main)
Codec ID : 2000
Duration : 1h 31mn
Bit rate mode : Constant
Bit rate : 448 Kbps
Channel(s) : 6 channels
Channel positions : Front: L C R, Side: L R, LFE
Sampling rate : 48.0 KHz
Bit depth : 16 bits
Compression mode : Lossy
Delay relative to video : 4ms
Stream size : 193 MiB (13%)
Alignment : Split accross interleaves
Interleave, duration : 40 ms (1.00 video frame)
Interleave, preload duration : 500 ms
Download / Скачать

Хотите скачать бесплатно? Зарегистрируйтесь на сайте (ссылка на регистрацию). Pirat.ca - самый быстрый торрент трекер в рунете!

Как скачивать  ·   Что такое торрент  ·   Рейтинг и ограничения

Пост 26-Фев-2012 17:21 (спустя 25 минут)

Топик был перенесен из форума Наше Кино в форум Новинки (HD|DVD|BD|TV|SAT|PDTV| - Rips)

Skinwalker
 

berezeca

Корсар

Пост 26-Фев-2012 18:16 (спустя 1 час 20 минут)

[Q] 

Спасибо!
[Профиль]  [ЛС] 

xxxLOGICxxx

Корсар

Пост 26-Фев-2012 18:50 (спустя 34 минуты)

[Q] 

[Профиль]  [ЛС] 

got70

Легенда

752

Пост 27-Фев-2012 00:14 (спустя 5 часов)

[Q] 

Лихо заверчен сюжет.

_________________
Добро непременно победит зло!Непременно...Затем поставит на колени,и зверски УБЬЁТ!
[Профиль]  [ЛС] 

sergokov

Флибустьер

754

Пост 27-Фев-2012 07:34 (спустя 7 часов)

[Q] 

Посмотрим.
[Профиль]  [ЛС] 

ksg111ban

Гроза морей

Пост 27-Фев-2012 10:01 (спустя 2 часа 26 минут)

[Q] 


_________________
[Профиль]  [ЛС] 

polozm

Легенда

Пост 28-Фев-2012 09:20 (спустя 23 часа)

[Q] 

такое кино не может быть хорошим :) да еще с такими актерами сереальными и пафосной заворотнюк...

_________________
mac mini -2.0 GHz Intel Core i7/ 8 GB DDR3. /Intel HD 3000(512mb)OS X 10.9 Mavericks
[Профиль]  [ЛС] 

Gvozdochet

Корсар

Пост 28-Фев-2012 10:01 (спустя 40 минут)

[Q] 

[Профиль]  [ЛС] 

Kibersanya

Корсар

Пост 28-Фев-2012 12:24 (спустя 2 часа 22 минуты)

[Q] 

Спасибо! Посмотрим! Как актрису Заворотнюк - не люблю......
[Профиль]  [ЛС] 

sergokov

Флибустьер

754

Пост 28-Фев-2012 17:23 (спустя 4 часа)

[Q] 

Не очень понравился, на троечку потянет.
[Профиль]  [ЛС] 

SaNyABA89

Морской Волк

Пост 28-Фев-2012 22:05 (спустя 4 часа)

[Q] 

спасибо!!!

_________________
Талантам нужно помогать, бездарности пробьются сами!
[Профиль]  [ЛС] 

dadec39

Корсар

Пост 29-Фев-2012 16:49 (спустя 18 часов)

[Q] 

Не плохо, концовку знал,но таких поворотов сюжета не ожидал от нашего фильма.)
[Профиль]  [ЛС] 

Aleks44

Гроза морей

Пост 01-Мар-2012 23:46 (спустя 1 день 6 часов)

[Q] 

Люблю не люблю классный фильм наши сняли лучше чем двух голову акулу смотреть рейтинг свой на 5,8 заработал
[Профиль]  [ЛС] 

Пост 29-Мар-2012 16:54 (спустя 27 дней)

Топик был перенесен из форума Новинки (HD|DVD|BD|TV|SAT|PDTV| - Rips) в форум Российские фильмы

ara1205
 

bruder

Флибустьер

Пост 29-Мар-2012 20:28 (спустя 27 дней)

[Q] 

Хороший фильм, правда слегка наивный...

_________________
[Профиль]  [ЛС] 

Frol81

Лоцман

Пост 06-Май-2012 22:00 (спустя 1 месяц 8 дней)

[Q] 

Если честно, фильм -кал,как и большинство фильмов с Заворотнюк.Игра актеров отвратительная,сюжета 0, развязка банальная и слабая.В общем зря потраченное время
[Профиль]  [ЛС] 

СерВолк

Корсар

Пост 03-Июл-2012 19:25 (спустя 1 месяц 27 дней)

[Q] 

помоему сюжет в коменнтах разварачивается лихо )))
одни одно другие противоположность ))
надо смотреть самому .
[Профиль]  [ЛС] 
Показать сообщения:    
Ответить на тему

Текущее время: Сегодня 01:14

Часовой пояс: GMT + 4



Вы не можете начинать темы
Вы не можете отвечать на сообщения
Вы не можете редактировать свои сообщения
Вы не можете удалять свои сообщения
Вы не можете голосовать в опросах
Вы не можете прикреплять файлы к сообщениям
Вы не можете скачивать файлы

▼ Вниз