ML
     
  Уважаемый Гость!
Вы можете поддержать проект и зарегистрироваться у наших партнеров - онлайн-стратегия MyLands. При регистрации в игре Вы получите код, который сможете активировать после регистрации на pirat.ca и получить 1000 дублонов.

Ваш код:
dbd0d701284cde74a1f34d06ce20b7bc75a73e75
 
     

Шапито-шоу: Уважение и сотрудничество (Сергей Лобан) [2011 г., комедия, DVDRip-AVC][internal release]

Ответить на тему
 
Автор
Сообщение

Пост 28-Фев-2012 11:31

[Q] 

zyyx

--Шапито-шоу: Уважение и сотрудничество-- Год выпуска: 2011
Российская премьера: 26 января 2012, «Organic Films»
Жанр: комедия
Продолжительность: 01:50:50
Перевод: Не требуется [лицензия]
Режиссер: Сергей Лобан
В ролях: Петр Мамонов, Вера Строкова, Сергей Попов, Алексей Подольский, Валерий Заводовский, Сергей Волжин-Ястребов, Юлия Говор, Дмитрий Новиков, Джим Авиньон, Сергей Кузьменко, Евгений Еровенков, Степан Девонин, Стас Барецкий, Алексей Знаменский, Максим Тиунов, Жанна Воробьева, Александр Маслаев, Александр Шпагин, Сергей Колесников, Дарья Спиридонова, Лев Сидоров, Наталья Рожкова, Галина Попова, Владимир Куляк, Роман Карпухин, Михаил Чеботарев, Антон Лебедев
Описание: Новелла Уважение. Смертельный номер! Великий мудрец, заплутавший во тьме, и его ученик, отчаянно стремящийся к свету. Они балансируют на краю пропасти, и пламя вулкана обжигает их лица. Король Лир и Звездный мальчик, их поезд судьбы стрелой несется сквозь горный тоннель. Ждет ли их свет в конце? Об этом в представлении!
Новелла Сотрудничество. Впервые в мире! Небывалое изобретение в области шоу-бизнеса! «Эрзац-звезда»! Существо, способное уничтожить любых конкурентов, и его создатель взлетят на самую вершину Олимпа, чтобы рухнуть оттуда в пучину вод. Инженер Гарин и Человек-Слон спасут или уничтожат друг друга! Это и еще многое -многое другое…!
Источник/Качество: DVDRip-AVC | Сэмпл
Формат: MKV
Видео кодек: H.264
Аудио кодек: AC3
Видео: [email protected], 25.000 fps, 1440 Kbps, 0.141bit/pixel
Аудио: 48.0 KHz, 6 ch, 448 Kbps
General
Complete name : C:\Users\zyyx\Music\Shapito.shou.part2.2011.DVDRip-AVC.zyyx.mkv
Format : Matroska
File size : 1.46 GiB
Duration : 1h 50mn
Overall bit rate : 1 890 Kbps
Encoded date : UTC 2012-02-28 07:16:52
Writing application : mkvmerge v4.6.0 ('Still Crazy After All These Years') сборка от Mar 13 2011 18:33:29
Writing library : libebml v1.2.0 + libmatroska v1.1.0
Video
ID : 1
Format : AVC
Format/Info : Advanced Video Codec
Format profile : [email protected]
Format settings, CABAC : Yes
Format settings, ReFrames : 16 frames
Muxing mode : Container [email protected]
Codec ID : V_MPEG4/ISO/AVC
Duration : 1h 50mn
Bit rate : 1 404 Kbps
Nominal bit rate : 1 440 Kbps
Width : 720 pixels
Height : 552 pixels
Display aspect ratio : 1.855
Frame rate : 25.000 fps
Resolution : 24 bits
Colorimetry : 4:2:0
Scan type : Progressive
Bits/(Pixel*Frame) : 0.141
Stream size : 1.09 GiB (74%)
Writing library : x264 core 114 r1924 08d04a4
Audio
ID : 2
Format : AC-3
Format/Info : Audio Coding 3
Codec ID : A_AC3
Duration : 1h 50mn
Bit rate mode : Constant
Bit rate : 448 Kbps
Channel(s) : 6 channels
Channel positions : Front: L C R, Surround: L R, LFE
Sampling rate : 48.0 KHz
Stream size : 355 MiB (24%)






Download / Скачать

Хотите скачать бесплатно? Зарегистрируйтесь на сайте (ссылка на регистрацию). Pirat.ca - самый быстрый торрент трекер в рунете!

Как скачивать  ·   Что такое торрент  ·   Рейтинг и ограничения

Пост 28-Фев-2012 14:19 (спустя 2 часа 47 минут)

Топик был перенесен из форума Наше Кино в форум Новинки (HD|DVD|BD|TV|SAT|PDTV| - Rips)

Skinwalker
 

yv6wB9G19oy1

Морской Волк

Пост 28-Фев-2012 15:24 (спустя 3 часа)

[Q] 


_________________
[Профиль]  [ЛС] 

ursus

Морской Волк

Пост 28-Фев-2012 15:47 (спустя 23 минуты)

[Q] 

[Профиль]  [ЛС] 

berezeca

Корсар

Пост 28-Фев-2012 18:01 (спустя 2 часа 13 минут)

[Q] 

Спасибо.
[Профиль]  [ЛС] 

nokia_series

Корсар

Пост 01-Мар-2012 15:48 (спустя 1 день 21 час)

[Q] 

Как фильмец? Стоит просмотра?
[Профиль]  [ЛС] 

Dmitro

Шкипер

Пост 04-Мар-2012 12:30 (спустя 2 дня 20 часов)

[Q] 

Спасибо большое...
[Профиль]  [ЛС] 

hemrylow

Штурман

Пост 11-Мар-2012 01:59 (спустя 6 дней)

[Q] 

давно наши таких фильмов не снимали
[Профиль]  [ЛС] 

russel95

Лоцман

Пост 11-Мар-2012 12:32 (спустя 10 часов)

[Q] 

скорости подкиньте
[Профиль]  [ЛС] 

NewTor

Гроза морей

Пост 13-Мар-2012 02:17 (спустя 1 день 13 часов)

[Q] 

Я впечатлён! Смотрел, не отрываясь, всю картину на протяжении 3,5 часов!!!
[Профиль]  [ЛС] 

Пост 29-Мар-2012 15:59 (спустя 16 дней)

Топик был перенесен из форума Новинки (HD|DVD|BD|TV|SAT|PDTV| - Rips) в форум Российские фильмы

ara1205
 
Показать сообщения:    
Ответить на тему

Текущее время: Сегодня 18:32

Часовой пояс: GMT + 4



Вы не можете начинать темы
Вы не можете отвечать на сообщения
Вы не можете редактировать свои сообщения
Вы не можете удалять свои сообщения
Вы не можете голосовать в опросах
Вы не можете прикреплять файлы к сообщениям
Вы не можете скачивать файлы

▼ Вниз