ML
     
  Уважаемый Гость!
Вы можете поддержать проект и зарегистрироваться у наших партнеров - онлайн-стратегия MyLands. При регистрации в игре Вы получите код, который сможете активировать после регистрации на pirat.ca и получить 1000 дублонов.

Ваш код:
bb0cb47ee786a33f751af5a500dd264c9487bfac
 
     

Одиночка (Сергей Щербин) [2010 г., боевик, криминал, детектив, DVDRip]

Ответить на тему
 
Автор
Сообщение

Пост 28-Фев-2012 23:27

[Q] 

Amethyst

Одиночка
Год выпуска: 2010
Мировая премьера: 7 мая 2010
Дата выхода DVD: 16 ноября 2010, «Русское счастье»
Производство: Россия
Жанр: Боевик, криминал, детектив
Продолжительность: 01:39:45
Режиссер: Сергей Щербин
В ролях: Данила Козловский, Ян Цапник, Андрей Кузнецов, Сергей Кудрявцев, Яков Шамшин
Описание: Вооруженный бандит, лицо которого скрыто под маской, совершает налет на сберкассу. Во время нападения погибает молодая женщина, жена оперуполномоченного Фролова. Представителям «органов» достаточно быстро удается выйти на след бандита — неизвестный, позвонивший в отделение милиции, дает операм наводку на дачу, где скрывается преступник. Сотрудники милиции проводят операцию, в ходе которой задержан некий Андрей Громов, который на самом деле является сотрудником спец. служб. Вина его полностью доказана и он получает 12 лет колонии строгого режима…
Под видом бандита он должен был попасть в тюрьму, чтобы обзавестись связями в криминальном мире. А нападение на сберкассу послужило отличным поводом к этому. Громов был уверен, что спустя два-три года он выйдет на свободу. Но про него забыли. И вот Громов на свободе. Он хочет только одного — отомстить тем, кто оставил его на зоне. За вышедшим из тюрьмы агентом начинается охота. Но ликвидировать Громова сложно — он бывший спецназовец, кроме того, годы, проведенные в тюрьме, не прошли для него даром…

Источник/Качество: DVDRip
Формат: MKV
Видео кодек: AVC
Аудио кодек: AC3
Видео: XviD, 720x576 (16:9), 1650 kb/s, 25.000 fps
Аудио: AC3, 448 kb/s, (6 ch), 48.0 kHz
Общее
Уникальный идентификатор : 196500195975090763095455318221332377087 (0x93D48FA791798F87B9379BA521436DFF)
Полное имя : D:\Торенты\Odinochka.2010.DVDRip..mkv
Формат : Matroska
Версия формата : Version 2
Размер файла : 1,46 Гбайт
Продолжительность : 1 ч. 39 м.
Общий поток : 2098 Кбит/сек
Название фильма : Одиночка (2010) DVDRip-AVC
Дата кодирования : UTC 2010-11-26 00:51:14
Программа кодирования : mkvmerge v3.4.0 ('Rapunzel') сборка от May 15 2010 09:38:20
Библиотека кодирования : libebml v0.8.0 + libmatroska v0.9.0
Видео
Идентификатор : 1
Формат : AVC
Формат/Информация : Advanced Video Codec
Профиль формата : [email protected]
Параметр CABAC формата : Да
Параметр ReFrames формата : 4 кадра
Идентификатор кодека : V_MPEG4/ISO/AVC
Продолжительность : 1 ч. 39 м.
Битрейт : 1650 Кбит/сек
Ширина : 720 пикселей
Высота : 576 пикселей
Соотношение сторон : 16:9
Соотношение сторон в оригинале : 5:4
Частота кадров : 25,000 кадров/сек
Стандарт вещания : PAL
Цветовое пространство : YUV
Субдискретизация насыщенности : 4:2:0
Битовая глубина : 8 бит
Тип развёртки : Прогрессивная
Бит/(Пиксели*Кадры) : 0.159
Размер потока : 1,12 Гбайт (77%)
Заголовок : http://freetorrents.org.ua
Библиотека кодирования : x264 core 104 r1713bm c276662
Настройки программы : cabac=1 / ref=1 / deblock=1:0:0 / analyse=0x3:0x3 / me=dia / subme=1 / psy=1 / psy_rd=0.00:0.00 / mixed_ref=0 / me_range=16 / chroma_me=1 / trellis=0 / 8x8dct=1 / cqm=0 / deadzone=21,11 / fast_pskip=1 / chroma_qp_offset=0 / threads=1 / sliced_threads=0 / nr=0 / decimate=1 / interlaced=0 / constrained_intra=0 / bframes=3 / b_pyramid=2 / b_adapt=1 / b_bias=0 / direct=1 / weightb=1 / open_gop=0 / weightp=0 / keyint=250 / keyint_min=25 / scenecut=40 / intra_refresh=0 / rc=2pass / mbtree=0 / bitrate=1650 / ratetol=1.0 / qcomp=0.60 / qpmin=10 / qpmax=51 / qpstep=4 / cplxblur=20.0 / qblur=0.5 / ip_ratio=1.40 / pb_ratio=1.30 / aq=1:1.00
Язык : English
Default : Да
Forced : Да
Аудио
Идентификатор : 2
Формат : AC-3
Формат/Информация : Audio Coding 3
Расширение режима : CM (complete main)
Идентификатор кодека : A_AC3
Продолжительность : 1 ч. 39 м.
Вид битрейта : Постоянный
Битрейт : 448 Кбит/сек
Каналы : 6 каналов
Расположение каналов : Front: L C R, Side: L R, LFE
Частота : 48,0 КГц
Битовая глубина : 16 бит
Метод сжатия : С потерями
Размер потока : 320 Мбайт (21%)
Заголовок : http://freetorrents.org.ua
Язык : Russian
Default : Да
Forced : Да
Download / Скачать

Хотите скачать бесплатно? Зарегистрируйтесь на сайте (ссылка на регистрацию). Pirat.ca - самый быстрый торрент трекер в рунете!

Как скачивать  ·   Что такое торрент  ·   Рейтинг и ограничения

Пост 28-Фев-2012 23:28 (спустя 1 минута)

Топик был перенесен из форума Наше Кино в форум Российские фильмы

Skinwalker
 

got70

Легенда

752

Пост 28-Фев-2012 23:52 (спустя 25 минут)

[Q] 


_________________
Добро непременно победит зло!Непременно...Затем поставит на колени,и зверски УБЬЁТ!
[Профиль]  [ЛС] 

Amethyst ®

27356

Пост 29-Фев-2012 00:07 (спустя 14 минут)

[Q] 

Лично смотрел часа два назад, понравилось, решил залить!!!! Советую кто не смотрел!!!
[Профиль]  [ЛС] 

ksg111ban

Гроза морей

Пост 04-Мар-2012 23:05 (спустя 4 дня)

[Q] 


_________________
[Профиль]  [ЛС] 

Вова 999

Штурман

Пост 08-Мар-2012 04:34 (спустя 3 дня)

[Q] 

СПАСИБО
[Профиль]  [ЛС] 

alexkalchenko

Корсар

40

Пост 10-Мар-2012 19:32 (спустя 2 дня 14 часов)

[Q] 

[Профиль]  [ЛС] 

cezap

Лоцман

Пост 11-Мар-2012 16:04 (спустя 20 часов)

[Q] 

[Профиль]  [ЛС] 

Khramov

Лоцман

Пост 03-Окт-2012 20:26 (спустя 6 месяцев 23 дня)

[Q] 

[Профиль]  [ЛС] 

Simsim

Морской Волк

Пост 08-Ноя-2012 15:55 (спустя 1 месяц 4 дня)

[Q] 

отзывы отличные..Спасибо!
[Профиль]  [ЛС] 

Skam782712

Шкипер

Пост 06-Апр-2013 16:28 (спустя 4 месяца 28 дней)

[Q] 

жена просила!!!!
[Профиль]  [ЛС] 

Колян-Вован

Корсар

Пост 07-Апр-2013 01:49 (спустя 9 часов)

[Q] 

Ничего особенного, но посмотреть можно. По спецназ и тюрягу лишнего написали.) Никакой романтики раскрываться не будет;))) А вот типичные для Козловского сопли с девушками - будут.

_________________
Читайте классиков...
[Профиль]  [ЛС] 

Nemetz

Корсар

Пост 11-Апр-2013 06:10 (спустя 4 дня)

[Q] 

Смотрел аж два раза..) Козловский могет! Фильм неплох, актеры тоже нормуль. 6/10 дам пожалуй.
[Профиль]  [ЛС] 

Scorpion7474

Флибустьер

Пост 25-Июн-2014 14:09 (спустя 1 год 2 месяца)

[Q] 

Лови бочку
[Профиль]  [ЛС] 

be2014

Юнга

Пост 28-Июн-2014 01:38 (спустя 2 дня 11 часов)

[Q] 

спасибо за труд ,,,,,,..
[Профиль]  [ЛС] 
Показать сообщения:    
Ответить на тему

Текущее время: Сегодня 02:23

Часовой пояс: GMT + 4



Вы не можете начинать темы
Вы не можете отвечать на сообщения
Вы не можете редактировать свои сообщения
Вы не можете удалять свои сообщения
Вы не можете голосовать в опросах
Вы не можете прикреплять файлы к сообщениям
Вы не можете скачивать файлы

▼ Вниз