ML
     
  Уважаемый Гость!
Вы можете поддержать проект и зарегистрироваться у наших партнеров - онлайн-стратегия MyLands. При регистрации в игре Вы получите код, который сможете активировать после регистрации на pirat.ca и получить 1000 дублонов.

Ваш код:
21acd5966619d49ad0b90c3305467b4646cc11a8
 
     

Шапито-шоу: Любовь и дружба (Сергей Лобан) [2011 г., комедия, DVDRip-AVC][internal release]

Ответить на тему
 
Автор
Сообщение

Пост 29-Фев-2012 11:20

[Q] 

zyyx

Шапито-шоу: Любовь и дружба
«Есть много ремиксов, а песня одна»
Год выпуска: 2011
Мировая премьера: 30 января 2012
Российская премьера: 26 января 2012, «Organic Films»
Дата выхода DVD: 1 марта 2012, «Новый Диск»
Дата выхода Blu-Ray: 1 марта 2012, «Новый Диск»
Жанр: комедия
Продолжительность: 01:46:37
Перевод: Не требуется [лицензия]
Режиссер: Сергей Лобан
В ролях: Петр Мамонов, Вера Строкова, Сергей Попов, Алексей Подольский, Валерий Заводовский, Сергей Волжин-Ястребов, Юлия Говор, Дмитрий Новиков, Джим Авиньон, Сергей Кузьменко, Евгений Еровенков, Степан Девонин, Стас Барецкий, Алексей Знаменский, Максим Тиунов, Жанна Воробьева, Александр Маслаев, Александр Шпагин, Сергей Колесников, Дарья Спиридонова, Лев Сидоров, Наталья Рожкова, Галина Попова, Владимир Куляк, Роман Карпухин, Михаил Чеботарев, Антон Лебедев
Описание: Новелла Любовь. Спешите видеть! Пронзительная история любви хрупкой девушки, которая мечтала стать принцессой и загадочного юноши, который скрывается от людей под именем Киберстранник. Море слез и бездна отчаяния! Могут ли Золушка и Человек-Невидимка быть вместе? Только у нас!
Новелла Дружба. Впервые на экране! Юноша, утративший способность слышать, но сохранивший пылающее сердце, и мальчик с ледяным осколком в глазу. Коварное предательство и несгибаемое мужество! Огненный Данко и Ледяной Кай, две стихии, столкнувшись, могут уничтожить Вселенную! Торопитесь видеть!
Источник/Качество: DVDRip | Сэмпл
Формат: MKV
Видео кодек: H.264
Аудио кодек: AC3
Видео: [email protected], 25.000 fps, 1514 Kbps, 0.149 bit/pixel
Аудио: 48.0 KHz, 6 ch, 448 Kbps
General
Complete name : C:\Users\zyyx\Music\Shapito.shou.part1.2011.DVDRip-AVC.zyyx.mkv
Format : Matroska
File size : 1.46 GiB
Duration : 1h 46mn
Overall bit rate : 1 964 Kbps
Encoded date : UTC 2012-02-29 07:35:19
Writing application : mkvmerge v4.6.0 ('Still Crazy After All These Years') сборка от Mar 13 2011 18:33:29
Writing library : libebml v1.2.0 + libmatroska v1.1.0
Video
ID : 1
Format : AVC
Format/Info : Advanced Video Codec
Format profile : [email protected]
Format settings, CABAC : Yes
Format settings, ReFrames : 16 frames
Muxing mode : Container [email protected]
Codec ID : V_MPEG4/ISO/AVC
Duration : 1h 46mn
Bit rate : 1 477 Kbps
Nominal bit rate : 1 514 Kbps
Width : 720 pixels
Height : 552 pixels
Display aspect ratio : 1.855
Frame rate : 25.000 fps
Resolution : 24 bits
Colorimetry : 4:2:0
Scan type : Progressive
Bits/(Pixel*Frame) : 0.149
Stream size : 1.10 GiB (75%)
Writing library : x264 core 114 r1924 08d04a4
Audio
ID : 2
Format : AC-3
Format/Info : Audio Coding 3
Codec ID : A_AC3
Duration : 1h 46mn
Bit rate mode : Constant
Bit rate : 448 Kbps
Channel(s) : 6 channels
Channel positions : Front: L C R, Surround: L R, LFE
Sampling rate : 48.0 KHz
Stream size : 342 MiB (23%)






Download / Скачать

Хотите скачать бесплатно? Зарегистрируйтесь на сайте (ссылка на регистрацию). Pirat.ca - самый быстрый торрент трекер в рунете!

Как скачивать  ·   Что такое торрент  ·   Рейтинг и ограничения

Пост 29-Фев-2012 17:01 (спустя 5 часов)

Топик был перенесен из форума Наше Кино в форум Новинки (HD|DVD|BD|TV|SAT|PDTV| - Rips)

Skinwalker
 

wirtual

Гроза морей

Пост 29-Фев-2012 22:15 (спустя 10 часов)

[Q] 

Стоит смотреть ?

_________________
не будешь делиться - останешься одноклеточным
[Профиль]  [ЛС] 

baldi

Штурман

5

Пост 29-Фев-2012 22:24 (спустя 9 минут)

[Q] 

[Профиль]  [ЛС] 

AvalonX

Штурман

Пост 03-Мар-2012 00:05 (спустя 2 дня 1 час)

[Q] 

Стоит смотреть ?
В обязательном порядке
[Профиль]  [ЛС] 

Psyber

Корсар

Пост 03-Мар-2012 10:16 (спустя 10 часов)

[Q] 

[Профиль]  [ЛС] 

sergokov

Флибустьер

754

Пост 04-Мар-2012 09:21 (спустя 23 часа)

[Q] 

[Профиль]  [ЛС] 

Dmitro

Шкипер

Пост 04-Мар-2012 12:29 (спустя 3 часа)

[Q] 

СПАСИБО за раздачу!
[Профиль]  [ЛС] 

and28

Морской Волк

Пост 07-Мар-2012 01:16 (спустя 2 дня 12 часов)

[Q] 

[Профиль]  [ЛС] 

oper73

Морской Волк

Пост 08-Мар-2012 00:41 (спустя 23 часа)

[Q] 

Продолжительность: 01:46:37
Так он вроде 3-х часовой, нет?
[Профиль]  [ЛС] 

[email protected]

Морской Волк

Пост 08-Мар-2012 21:18 (спустя 20 часов)

[Q] 

[Профиль]  [ЛС] 

NewTor

Гроза морей

Пост 13-Мар-2012 02:19 (спустя 4 дня)

[Q] 

Продолжительность: 01:46:37
Так он вроде 3-х часовой, нет?
Всё правильно. Вторая часть рядом в топике - ищи...
Фильмом впечатлён! Смотрел, не отрываясь, всю картину на протяжении 3,5 часов!!!
[Профиль]  [ЛС] 

Пост 29-Мар-2012 15:59 (спустя 16 дней)

Топик был перенесен из форума Новинки (HD|DVD|BD|TV|SAT|PDTV| - Rips) в форум Российские фильмы

ara1205
 

Valeron1313

Лоцман

Пост 17-Май-2012 10:33 (спустя 2 месяца 4 дня)

[Q] 

Спасибо . Что-то в этом фильме есть .
[Профиль]  [ЛС] 

rostyslav

Штурман

Пост 18-Май-2012 18:45 (спустя 1 день 8 часов)

[Q] 

что то есть в любом фильме...
для рядового потребителя, муть редкая)
[Профиль]  [ЛС] 

dominas

Лоцман

Пост 29-Июл-2013 14:18 (спустя 1 год 2 месяца)

[Q] 

Влюбился в этот фильм... Могу смотреть его с любого места. Мое мнение - шедевр! aa
[Профиль]  [ЛС] 
Показать сообщения:    
Ответить на тему

Текущее время: Сегодня 23:16

Часовой пояс: GMT + 4



Вы не можете начинать темы
Вы не можете отвечать на сообщения
Вы не можете редактировать свои сообщения
Вы не можете удалять свои сообщения
Вы не можете голосовать в опросах
Вы не можете прикреплять файлы к сообщениям
Вы не можете скачивать файлы

▼ Вниз