ML
     
  Уважаемый Гость!
Вы можете поддержать проект и зарегистрироваться у наших партнеров - онлайн-стратегия MyLands. При регистрации в игре Вы получите код, который сможете активировать после регистрации на pirat.ca и получить 1000 дублонов.

Ваш код:
4855957e17f50c5c1236a0f8c4492b2b0bba00a0
 
     

Раздолбай (Валерий Ибрагимов) [2011 г., боевик, комедия, DVDRip-AVC][internal release]

Ответить на тему
 
Автор
Сообщение

Пост 01-Мар-2012 13:24

[Q] 

zyyx

--Раздолбай
«В жизни так бывает...»
-- Год выпуска: 2011
Российская премьера: 10 августа 2011
Производство: Россия
Жанр: боевик, комедия
Продолжительность: 01:20:46
Перевод: Не требуется [лицензия]
Режиссер: Валерий Ибрагимов
В ролях: Николай Кудряшов, Юлия Куваева, Олег Сидоров, Филипп Величко, Евгений Савчук, Валерий Ибрагимов, Петр Капица, Николай Калмыков, Евгений Маканов, Сергей Куваев
Описание: Она владелица собственного бизнеса, амбициозна, самодостаточна и не замужем. Ее компания участвует в тендере за лакомый кусок земли. Столкнувшись с конкурентами, она ищет себе надежную охрану. Он водитель и охранник, хороший парень, но ему нельзя доверить никаких поручений, потому что главный герой… раздолбай. В разгар перепетий когда угрожает опасность именно он приходит ей на помощь.
Источник/Качество: DVDRip-AVC | Сэмпл
Формат: MKV
Видео кодек: H.264
Аудио кодек: AC3
Видео: [email protected], 25.000 fps, 2190 Kbps, bit/pixel
Аудио: 48.0 KHz, 6 ch, 224
General
Complete name : C:\Users\zyyx\Music\Razdolbay.2011.DVDRip-AVC.zyyx.mkv
Format : Matroska
File size : 1.36 GiB
Duration : 1h 20mn
Overall bit rate : 2 415 Kbps
Encoded date : UTC 2012-03-01 09:28:02
Writing application : mkvmerge v4.6.0 ('Still Crazy After All These Years') сборка от Mar 13 2011 18:33:29
Writing library : libebml v1.2.0 + libmatroska v1.1.0
Video
ID : 1
Format : AVC
Format/Info : Advanced Video Codec
Format profile : [email protected]
Format settings, CABAC : Yes
Format settings, ReFrames : 16 frames
Muxing mode : Container [email protected]
Codec ID : V_MPEG4/ISO/AVC
Duration : 1h 20mn
Bit rate : 2 143 Kbps
Nominal bit rate : 2 190 Kbps
Width : 720 pixels
Height : 576 pixels
Display aspect ratio : 16:9
Frame rate : 25.000 fps
Standard : PAL
Resolution : 24 bits
Colorimetry : 4:2:0
Scan type : Progressive
Bits/(Pixel*Frame) : 0.207
Stream size : 1.21 GiB (89%)
Writing library : x264 core 114 r1924 08d04a4
Audio
ID : 2
Format : AC-3
Format/Info : Audio Coding 3
Codec ID : A_AC3
Duration : 1h 20mn
Bit rate mode : Constant
Bit rate : 224 Kbps
Channel(s) : 6 channels
Channel positions : Front: L C R, Surround: L R, LFE
Sampling rate : 48.0 KHz
Stream size : 129 MiB (9%)







Download / Скачать

Хотите скачать бесплатно? Зарегистрируйтесь на сайте (ссылка на регистрацию). Pirat.ca - самый быстрый торрент трекер в рунете!

Как скачивать  ·   Что такое торрент  ·   Рейтинг и ограничения

Пост 01-Мар-2012 14:00 (спустя 35 минут)

Топик был перенесен из форума Наше Кино в форум Новинки (HD|DVD|BD|TV|SAT|PDTV| - Rips)

Skinwalker
 

nokia_series

Корсар

Пост 01-Мар-2012 15:46 (спустя 2 часа 21 минута)

[Q] 

Стоит траты времени?
[Профиль]  [ЛС] 

Darts

Лоцман

Пост 01-Мар-2012 17:05 (спустя 1 час 19 минут)

[Q] 

Полного источника не было: 1 час 39 минут
Личеров: 9 [ 0 KB/s ]

_________________
[Профиль]  [ЛС] 

Vulkankor

Корсар

Пост 01-Мар-2012 17:20 (спустя 14 минут)

[Q] 

Спасибо !С удовольствием посмотрю
[Профиль]  [ЛС] 

bull271174

Флибустьер

Пост 01-Мар-2012 19:33 (спустя 2 часа 13 минут)

[Q] 

Спасибо!
[Профиль]  [ЛС] 

bull271174

Флибустьер

Пост 01-Мар-2012 19:36 (спустя 2 минуты)

[Q] 

Полного источника не было: 4 часа????
[Профиль]  [ЛС] 

HellMean

Лоцман

Пост 01-Мар-2012 23:41 (спустя 4 часа)

[Q] 

Скорости
[Профиль]  [ЛС] 

jumpersky

Легенда

Пост 02-Мар-2012 11:11 (спустя 11 часов)

[Q] 

[Профиль]  [ЛС] 

citrus

Морской Волк

Пост 04-Мар-2012 16:15 (спустя 2 дня 5 часов)

[Q] 

[Профиль]  [ЛС] 

p10neer

Лоцман

Пост 21-Мар-2012 19:25 (спустя 17 дней)

[Q] 

как фильм_то??????????????????
[Профиль]  [ЛС] 

Zasedatelev

Морской Волк

Пост 22-Мар-2012 11:34 (спустя 16 часов)

[Q] 

Смотреть не стоит.
[Профиль]  [ЛС] 

Selim

Корсар

Пост 22-Мар-2012 17:02 (спустя 5 часов)

[Q] 

Глупенькое кино, в главной роли сам продюсер Николай Кудряшов страдающий манией непобедимого бойца. Отстой очередной. Не видать нам Ники.
[Профиль]  [ЛС] 

alexkalchenko

Корсар

40

Пост 24-Мар-2012 06:01 (спустя 1 день 12 часов)

[Q] 

муть. у нас через раз выходит нормальные фильмы
[Профиль]  [ЛС] 

Пост 29-Мар-2012 16:20 (спустя 5 дней)

Топик был перенесен из форума Новинки (HD|DVD|BD|TV|SAT|PDTV| - Rips) в форум Российские фильмы

ara1205
 
Показать сообщения:    
Ответить на тему

Текущее время: Сегодня 06:14

Часовой пояс: GMT + 4



Вы не можете начинать темы
Вы не можете отвечать на сообщения
Вы не можете редактировать свои сообщения
Вы не можете удалять свои сообщения
Вы не можете голосовать в опросах
Вы не можете прикреплять файлы к сообщениям
Вы не можете скачивать файлы

▼ Вниз