ML
     
  Уважаемый Гость!
Вы можете поддержать проект и зарегистрироваться у наших партнеров - онлайн-стратегия MyLands. При регистрации в игре Вы получите код, который сможете активировать после регистрации на pirat.ca и получить 1000 дублонов.

Ваш код:
74c28610d77aaac24ba694c4128f3b9b46b04220
 
     

Приказано женить ( Серии: 1-2 из 2) (Юрий Морозов) [2012 г., комедия, DVDRip]

Ответить на тему
 
Автор
Сообщение

Пост 02-Мар-2012 08:51

[Q] 

Amethyst

Приказано женить Год выпуска: 2012
Дата выхода DVD: 21 февраля 2012, «Lizard Cinema Trade»
Производство: Россия / Телефильм Продакшн
Жанр: Комедия
Продолжительность: 2 х 00:50:00
Перевод: Оригинал [Лицензия]
Режиссер: Юрий Морозов
В ролях
Олег Флеер, Борис Щербаков, Олег Масленников-Войтов, Александр Ратников, Мария Костикова, Данила Кошелев, Дмитрий Кошелев


Источник/Качество: DVDRip
Формат: AVI
Видео кодек: XviD
Аудио кодек: AC3
Видео: XviD, 720x400 (16:9), 1770 kb/s, 25.000 fps
Аудио: AC3, 192 kb/s, (2 ch), 48.0 kHz

1.Приказано женить - 1серия
2.Приказано женить - 2серия
Главный герой этой истории капитан-лейтенант — связист от бога — Владимир Козлов. Он человек незаменимый! Но есть одна беда — Володя страшно рассеян, отчего постоянно попадает в нелепые ситуации. Из-за своей несобранности он однажды умудрился во время общего построения поставить в неловкое положение самого контр-адмирала Лобанова! Тот осерчал и приказал уволить Козлова. Сослуживцы в панике! Без Володи в местном узле связи полная неразбериха, а главное, придется заново подавать документы на квартиры военнослужащим и пропустить очередь, в которой стоял горе-связист. Друзья Маслеников и Ленцов заступаются за Володю перед контр-адмиралом, просят простить, ведь у их приятеля свадьба «на носу». Теперь Володе надо за неделю срочно найти себе невесту и жениться!
Ловелас Масленников берется сосватать другу одинокую уборщицу Зину — мать одиночку с двумя детьми, но неожиданно сам в нее влюбляется. Тем временем на контр-адмирала Лобанова как снег на голову сваливается дочь — взбалмошная столичная штучка Лара, мечтающая переселиться в Японию. Отец ставит условие: пока Лара не замужем, об этом не может идти речи. Строптивая Лара готова выскочить за первого встречного. Понятное дело: им окажется неудачник Володя. В конце концов, все трудности победит любовь!
Общее
Полное имя : D:\Торенты\Prikazano zhenit.(2.serii.iz.2).2012.O.DVDRip.[pirat.ca]\Prikazano zhenit.(2.serija.iz.2).2012.O.DVDRip.[pirat.ca].avi
Формат : AVI
Формат/Информация : Audio Video Interleave
Размер файла : 700 Мбайт
Продолжительность : 49 м.
Общий поток : 1972 Кбит/сек
Режиссёр : Yuriy Morozov
Программа кодирования : VirtualDubMod 1.5.10.2 (build 2540/release)
Видео
Идентификатор : 0
Формат : MPEG-4 Visual
Профиль формата : Advanced [email protected]
Параметр BVOP формата : 2
Параметр QPel формата : Нет
Параметр GMC формата : Без точки перехода
Параметр матрицы формата : Выборочная
Идентификатор кодека : XVID
Идентификатор кодека/Подсказка : XviD
Продолжительность : 49 м.
Битрейт : 1770 Кбит/сек
Ширина : 720 пикселей
Высота : 400 пикселей
Соотношение сторон : 16:9
Частота кадров : 25,000 кадров/сек
Цветовое пространство : YUV
Субдискретизация насыщенности : 4:2:0
Битовая глубина : 8 бит
Тип развёртки : Прогрессивная
Метод сжатия : С потерями
Бит/(Пиксели*Кадры) : 0.246
Размер потока : 629 Мбайт (90%)
Библиотека кодирования : XviD 1.2.1 (UTC 2008-12-04)
Аудио
Идентификатор : 1
Формат : AC-3
Формат/Информация : Audio Coding 3
Расширение режима : CM (complete main)
Идентификатор кодека : 2000
Продолжительность : 49 м.
Вид битрейта : Постоянный
Битрейт : 192 Кбит/сек
Каналы : 2 канала
Расположение каналов : Front: L R
Частота : 48,0 КГц
Битовая глубина : 16 бит
Метод сжатия : С потерями
Размер потока : 68,2 Мбайт (10%)
Выравнивание : Соединение по промежуткам
Продолжительность промежутка : 40 мс. (1,00 видеокадр)
Время предзагрузки промежутка : 512 мс.
Download / Скачать

Хотите скачать бесплатно? Зарегистрируйтесь на сайте (ссылка на регистрацию). Pirat.ca - самый быстрый торрент трекер в рунете!

Как скачивать  ·   Что такое торрент  ·   Рейтинг и ограничения

y4hrth7@

Лоцман

Пост 02-Мар-2012 10:01 (спустя 1 час 9 минут)

[Q] 

смотреть стоит.
[Профиль]  [ЛС] 

Пост 02-Мар-2012 10:20 (спустя 19 минут)

Топик был перенесен из форума Наше Кино в форум Новинки (HD|DVD|BD|TV|SAT|PDTV| - Rips)

Skinwalker
 

jumpersky

Легенда

Пост 02-Мар-2012 11:12 (спустя 1 час 10 минут)

[Q] 

[Профиль]  [ЛС] 

lexx

Корсар

129

Пост 02-Мар-2012 21:29 (спустя 10 часов)

[Q] 

[Профиль]  [ЛС] 

Серегазмей

Корсар

186

Пост 05-Мар-2012 01:39 (спустя 2 дня 4 часа)

[Q] 


_________________
[Профиль]  [ЛС] 

storm

Морской Волк

Пост 05-Мар-2012 19:14 (спустя 17 часов)

[Q] 

Разок глянуть можно, а так
[Профиль]  [ЛС] 

sk68

Шкипер

Пост 05-Мар-2012 19:30 (спустя 15 минут)

[Q] 

посмотрим,
[Профиль]  [ЛС] 

anonymoys

Гроза морей

901

Пост 06-Мар-2012 06:46 (спустя 11 часов)

[Q] 

[Профиль]  [ЛС] 

Пост 04-Апр-2012 13:53 (спустя 29 дней)

Топик был перенесен из форума Новинки (HD|DVD|BD|TV|SAT|PDTV| - Rips) в форум Российские фильмы

ara1205
 

dedmazai55

Морской Волк

Пост 05-Июл-2012 22:03 (спустя 3 месяца 30 дней)

[Q] 

[Профиль]  [ЛС] 

kinstintin

Гроза морей

Пост 07-Июл-2012 09:49 (спустя 1 день 11 часов)

[Q] 

[Профиль]  [ЛС] 

albina-1951

Лоцман

Пост 12-Июл-2012 17:15 (спустя 5 дней)

[Q] 

Спасибо!!
[Профиль]  [ЛС] 

Snobel

Штурман

Пост 10-Сен-2012 21:12 (спустя 1 месяц 29 дней)

[Q] 

Посмотрим. cr
[Профиль]  [ЛС] 

ALEKSANDR_1968

Морской Волк

Пост 14-Сен-2012 20:25 (спустя 3 дня)

[Q] 

[Профиль]  [ЛС] 

practus

Лоцман

Пост 15-Сен-2012 00:25 (спустя 4 часа)

[Q] 

[Профиль]  [ЛС] 

Snobel

Штурман

Пост 25-Сен-2012 18:37 (спустя 10 дней)

[Q] 

Фильм понравился . bk az
[Профиль]  [ЛС] 

TomCatGun

Флибустьер

Пост 08-Окт-2012 22:42 (спустя 13 дней)

[Q] 

Спасибо
[Профиль]  [ЛС] 
Показать сообщения:    
Ответить на тему

Текущее время: Сегодня 09:59

Часовой пояс: GMT + 4



Вы не можете начинать темы
Вы не можете отвечать на сообщения
Вы не можете редактировать свои сообщения
Вы не можете удалять свои сообщения
Вы не можете голосовать в опросах
Вы не можете прикреплять файлы к сообщениям
Вы не можете скачивать файлы

▼ Вниз