ML
     
  Уважаемый Гость!
Вы можете поддержать проект и зарегистрироваться у наших партнеров - онлайн-стратегия MyLands. При регистрации в игре Вы получите код, который сможете активировать после регистрации на pirat.ca и получить 1000 дублонов.

Ваш код:
062e2babcc491faeb40d496cf9a498ac3df6cdd0
 
     

Оружие (Александр Рогожкин) [2012 г., Криминал, Боевик, SATRip]

Ответить на тему
 
Автор
Сообщение

Пост 02-Мар-2012 21:03

[Q] 

Amethyst

Оружие Год выпуска: 2012
Жанр: Криминал, Боевик
Продолжительность: 01:24:28
Режиссер: Александр Рогожкин
В ролях: Илья Носков, Дмитрий Паламарчук, Светлана Щедрина, Антон Богров, Антон Пулит, Сергей Галич, Эльдар Лебедев, Алексей Осипов, Эрик Кения, Сергей Рублёв
Описание: "О.Р.У.Ж.И.Е" - это аббревиатура из имен пяти друзей - Олег, военный пенсионер; Роман, ученый, сотрудник НИИ; Ульяна, телевизионный корреспондент; Женя, физик, доктор наук; Игорь, предприниматель, бывший репортер, муж Ульяны; Егор, лаборант провинциального научного центра. В одной из северных областей России Олег и Роман испытывают новейшее оружие - винтовку, обладающую исключительной дальнобойностью и разрушительной силой. Испытания проходят удачно, и Олег пытается найти выходы на военных, которых может заинтересовать новое изобретение, ведь один солдат с такой винтовкой способен заменить едва ли не целую армию. Но после встречи с "нужными" людьми становится ясно: теперь они пойдут на все, лишь бы заполучить новую разработку, и цена в несколько жизней не кажется им такой уж неприемлемой...
Источник/Качество: SATRip
Формат: AVI
Видео кодек: XviD
Аудио кодек: MP3
Видео: XVID 720x400 (16:9), 25.000 fps, 2017Kbps
Аудио: MP3, 48000Hz, 2ch, 192kbps
Общее
Полное имя : D:\Торенты\Oruzhie.2012.XviD.SATRip.[pirat.ca].avi
Формат : AVI
Формат/Информация : Audio Video Interleave
Размер файла : 1,31 Гбайт
Продолжительность : 1 ч. 24 м.
Общий поток : 2219 Кбит/сек
Программа кодирования : VirtualDubMod 1.5.10.2 (build 2540/release)
Библиотека кодирования : VirtualDub build 32507/release
Видео
Идентификатор : 0
Формат : MPEG-4 Visual
Профиль формата : Advanced [email protected]
Параметр BVOP формата : 2
Параметр QPel формата : Нет
Параметр GMC формата : Без точки перехода
Параметр матрицы формата : Default (MPEG)
Режим смешивания : Сжатый битовый поток
Идентификатор кодека : XVID
Идентификатор кодека/Подсказка : XviD
Продолжительность : 1 ч. 24 м.
Битрейт : 2017 Кбит/сек
Ширина : 720 пикселей
Высота : 400 пикселей
Соотношение сторон : 16:9
Частота кадров : 25,000 кадров/сек
Цветовое пространство : YUV
Субдискретизация насыщенности : 4:2:0
Битовая глубина : 8 бит
Тип развёртки : Прогрессивная
Метод сжатия : С потерями
Бит/(Пиксели*Кадры) : 0.280
Размер потока : 1,19 Гбайт (91%)
Библиотека кодирования : XviD 64
Аудио
Идентификатор : 1
Формат : MPEG Audio
Версия формата : Version 1
Профиль формата : Layer 3
Режим : Joint stereo
Расширение режима : MS Stereo
Идентификатор кодека : 55
Идентификатор кодека/Подсказка : MP3
Продолжительность : 1 ч. 24 м.
Вид битрейта : Постоянный
Битрейт : 192 Кбит/сек
Каналы : 2 канала
Частота : 48,0 КГц
Метод сжатия : С потерями
Размер потока : 116 Мбайт (9%)
Выравнивание : Соединение по промежуткам
Продолжительность промежутка : 40 мс. (1,00 видеокадр)
Время предзагрузки промежутка : 504 мс.
Библиотека кодирования : LAME3.90.3
Download / Скачать

Хотите скачать бесплатно? Зарегистрируйтесь на сайте (ссылка на регистрацию). Pirat.ca - самый быстрый торрент трекер в рунете!

Как скачивать  ·   Что такое торрент  ·   Рейтинг и ограничения

Пост 03-Мар-2012 21:19 (спустя 1 день)

Топик был перенесен из форума Наше Кино в форум Новинки (HD|DVD|BD|TV|SAT|PDTV| - Rips)

Чужая
 

citrus

Морской Волк

Пост 04-Мар-2012 16:16 (спустя 1 день 19 часов)

[Q] 

Поглядим
[Профиль]  [ЛС] 

Серегазмей

Корсар

186

Пост 05-Мар-2012 01:35 (спустя 9 часов)

[Q] 


_________________
[Профиль]  [ЛС] 

steve11

Штурман

Пост 07-Мар-2012 16:18 (спустя 2 дня 14 часов)

[Q] 

[Профиль]  [ЛС] 

C0y0te

1416

Пост 07-Мар-2012 21:55 (спустя 5 часов)

[Q] 

[Профиль]  [ЛС] 

savatey

Корсар

Пост 08-Мар-2012 01:36 (спустя 3 часа)

[Q] 

Никакой фильм , показывали по телеку .

_________________
[Профиль]  [ЛС] 

Krukov_Aleksey

Корсар

Пост 08-Мар-2012 02:40 (спустя 1 час 3 минуты)

[Q] 

Спасибо люблю детективы
[Профиль]  [ЛС] 

sergokov

Флибустьер

754

Пост 08-Мар-2012 08:52 (спустя 6 часов)

[Q] 

Глянем.
[Профиль]  [ЛС] 

ZIDANE

Лоцман

Пост 10-Мар-2012 23:08 (спустя 2 дня 14 часов)

[Q] 

Заценим
[Профиль]  [ЛС] 

polozm

Легенда

Пост 11-Мар-2012 10:28 (спустя 11 часов)

[Q] 

Вижу на скринах МЕГАВИНТОФКУ!!!!!!

_________________
mac mini -2.0 GHz Intel Core i7/ 8 GB DDR3. /Intel HD 3000(512mb)OS X 10.9 Mavericks
[Профиль]  [ЛС] 

zapad - 08

Шкипер

Пост 11-Мар-2012 21:41 (спустя 11 часов)

[Q] 

ведь один солдат с такой винтовкой способен заменить едва ли не целую армию
2 солдата и лопата . bj
[Профиль]  [ЛС] 

Пост 04-Апр-2012 14:00 (спустя 23 дня)

Топик был перенесен из форума Новинки (HD|DVD|BD|TV|SAT|PDTV| - Rips) в форум Российские фильмы

ara1205
 

FromAGM

Штурман

Пост 25-Апр-2012 18:58 (спустя 1 месяц 13 дней)

[Q] 

Кинопоиск:
[Профиль]  [ЛС] 
Показать сообщения:    
Ответить на тему

Текущее время: Сегодня 17:43

Часовой пояс: GMT + 4



Вы не можете начинать темы
Вы не можете отвечать на сообщения
Вы не можете редактировать свои сообщения
Вы не можете удалять свои сообщения
Вы не можете голосовать в опросах
Вы не можете прикреплять файлы к сообщениям
Вы не можете скачивать файлы

▼ Вниз