ML
     
  Уважаемый Гость!
Вы можете поддержать проект и зарегистрироваться у наших партнеров - онлайн-стратегия MyLands. При регистрации в игре Вы получите код, который сможете активировать после регистрации на pirat.ca и получить 1000 дублонов.

Ваш код:
ec3b26eefbcdc72e08e9fd33c6846bb2ca10f8b1
 
     

О, счастливчик! (Эдуард Парри) [2009 г., комедия, HDTVRip]

Ответить на тему
 
Автор
Сообщение

Пост 30-Окт-2011 11:13

[Q] 

erchine

О, счастливчик!
Год выпуска: 2009
Жанр: комедия
Продолжительность: 01:35:53
Режиссер: Эдуард Парри
В ролях: Михаил Тарабукин, Владимир Меньшов, Сергей Шакуров, Владимир Кристовский, Ольга Полякова, Вячеслав Разбегаев, Семен Фурман, Сергей Векслер, Армен Джигарханян, Алексей Панин, Александр Баширов
Описание: Это молодежная комедия о том, как в один прекрасный день, Славику, обычному молодому человеку показалось, что жизнь его слишком банальна, непримечательна и лишена всяческого смысла. У него нет приличной работы, образования, девушки…
Он решает умереть — прыгнуть с моста. Но неожиданно появляются два экстравагантных джентльмена: Олег Генрихович и Константин Германович, которые убеждают героя в том, что самоубийство — не выход. Ему предлагают поменять cвою биографию и начать новую благополучную жизнь. Но как только Славик избавляется от собственных проблем, тут же начинаются новые! Игра в «чужую» жизнь превращается в калейдоскоп веселых, грустных, а порой и страшных историй.
Качество: HDTVRip
Формат: AVI
Видео кодек: XviD
Аудио кодек: AC3
Видео: Xvid 720x304, 24.00fps, 1580kbps
Аудио: Dolby AC3 48000Hz 6ch 448kbps
General
Complete name : F:\O.schastlivchik.2009.XviD.HDRip.avi
Format : AVI
Format/Info : Audio Video Interleave
File size : 1.36 GiB
Duration : 1h 35mn
Overall bit rate : 2 038 Kbps
Writing application : VirtualDubMod 1.5.10.2 (build 2540/release)
Writing library : VirtualDubMod build 2540/release
Video
ID : 0
Format : MPEG-4 Visual
Format profile : Advanced [email protected]
Format settings, BVOP : 2
Format settings, QPel : No
Format settings, GMC : No warppoints
Format settings, Matrix : Default (H.263)
Muxing mode : Packed bitstream
Codec ID : XVID
Codec ID/Hint : XviD
Duration : 1h 35mn
Bit rate : 1 580 Kbps
Width : 720 pixels
Height : 304 pixels
Display aspect ratio : 2.35:1
Frame rate : 24.000 fps
Color space : YUV
Chroma subsampling : 4:2:0
Bit depth : 8 bits
Scan type : Progressive
Compression mode : Lossy
Bits/(Pixel*Frame) : 0.301
Stream size : 1.06 GiB (78%)
Writing library : XviD 1.2.1 (UTC 2008-12-04)
Audio
ID : 1
Format : AC-3
Format/Info : Audio Coding 3
Mode extension : CM (complete main)
Codec ID : 2000
Duration : 1h 35mn
Bit rate mode : Constant
Bit rate : 448 Kbps
Channel(s) : 6 channels
Channel positions : Front: L C R, Side: L R, LFE
Sampling rate : 48.0 KHz
Bit depth : 16 bits
Compression mode : Lossy
Stream size : 307 MiB (22%)
Alignment : Split accross interleaves
Interleave, duration : 42 ms (1.00 video frame)
Interleave, preload duration : 500 ms



Download / Скачать

Хотите скачать бесплатно? Зарегистрируйтесь на сайте (ссылка на регистрацию). Pirat.ca - самый быстрый торрент трекер в рунете!

Как скачивать  ·   Что такое торрент  ·   Рейтинг и ограничения



Последний раз редактировалось: erchine (2011-11-08 02:12), всего редактировалось 1 раз

Пост 30-Окт-2011 12:27 (спустя 1 час 14 минут)

Топик был перенесен из форума Наше Кино в форум Российские фильмы

Чужая
 

Luzhok

Легенда

Пост 30-Окт-2011 12:35 (спустя 1 час 21 минута)

[Q] 

подключаюсь
erchine, спасибо
[Профиль]  [ЛС] 

XAPOH

Гроза морей

Пост 03-Ноя-2011 07:54 (спустя 3 дня)

[Q] 

Спасибо!

_________________

<<<Dolus an virtus quis in hoste requirat?>>>
Intel Core i7 2600, 16Gb Ram, GTX 670, SSD.
PS4.
[Профиль]  [ЛС] 

vladimir203

Лоцман

Пост 18-Ноя-2011 18:14 (спустя 15 дней)

[Q] 

спасибо! vladimir203
[Профиль]  [ЛС] 

aiden57

Гроза морей

3259

Пост 02-Дек-2011 20:58 (спустя 14 дней)

[Q] 

И как оно???
Кто посмотрел отпишитесь.

_________________

Мои раздачи
[Профиль]  [ЛС] 

kufre

Корсар

3085

Пост 27-Апр-2012 14:15 (спустя 4 месяца 24 дня)

[Q] 

Спасибо за раздачу!!

_________________
[Профиль]  [ЛС] 

Wolf111

57054

Пост 14-Сен-2012 08:00 (спустя 4 месяца 16 дней)

[Q] 

Помогу с раздачей,но сначала
[Профиль]  [ЛС] 
Показать сообщения:    
Ответить на тему

Текущее время: Сегодня 03:52

Часовой пояс: GMT + 4



Вы не можете начинать темы
Вы не можете отвечать на сообщения
Вы не можете редактировать свои сообщения
Вы не можете удалять свои сообщения
Вы не можете голосовать в опросах
Вы не можете прикреплять файлы к сообщениям
Вы не можете скачивать файлы

▼ Вниз