ML
     
  Уважаемый Гость!
Вы можете поддержать проект и зарегистрироваться у наших партнеров - онлайн-стратегия MyLands. При регистрации в игре Вы получите код, который сможете активировать после регистрации на pirat.ca и получить 1000 дублонов.

Ваш код:
74c28610d77aaac24ba694c4128f3b9b46b04220
 
     

Влюбленные (Валерий Бебко, Олег Борщевский, Денис Гамзинов) [2011 г., драма, мелодрама, комедия, DVDRip]

Ответить на тему
 
Автор
Сообщение

Пост 07-Мар-2012 16:06

[Q] 

Amethyst

Влюбленные
Год выпуска: 2011
Мировая премьера: 9 февраля 2012
Российская премьера: 9 февраля 2012, «Top Film Distribution»
Дата выхода DVD: 8 марта 2012, «New Dream media», «Новый Диск»
Производство: Украина, inQ
Жанр: Драма, мелодрама, комедия
Продолжительность: 01:40:17
Перевод: Оригинал [Лицензия]
Субтитры: Russian, English (не отключаемые)
Режиссер: Валерий Бебко, Олег Борщевский, Денис Гамзинов
В ролях: Даша Астафьева, Ада Роговцева, Артем Семакин, Александр Яценко, Виталий Линецкий, Илья Исаев, Елена Фесуненко, Юлия Емельяненко, Николай Олейник, Григорий Калинин
Описание: Альманах короткометражных фильмов о любви в современном мегаполисе, глазами молодых украинских режиссеров.

Источник/Качество: DVDRip
Формат: AVI
Видео кодек: XviD
Аудио кодек: AC3
Видео: XviD, 720x400, 25.000 fps, 1558 kbps
Аудио: AC3, 384 kb/s, (6 ch), 48.0 kHz
Общее
Полное имя : D:\Торенты\Vlublennie.2011.DVDRip.[pirat.ca].avi
Формат : AVI
Формат/Информация : Audio Video Interleave
Размер файла : 1,37 Гбайт
Продолжительность : 1 ч. 40 м.
Общий поток : 1951 Кбит/сек
Название фильма : Vlublennie.2011.O.DVDRip
Жанр : Comedy
Программа кодирования : VirtualDubMod 1.5.10.2 (build 2540/release)
Формат оригинала/Имя : Movie
Правообладатель :
Видео
Идентификатор : 0
Формат : MPEG-4 Visual
Профиль формата : Advanced [email protected]
Параметр BVOP формата : 2
Параметр QPel формата : Нет
Параметр GMC формата : Без точки перехода
Параметр матрицы формата : Выборочная
Идентификатор кодека : XVID
Идентификатор кодека/Подсказка : XviD
Продолжительность : 1 ч. 40 м.
Битрейт : 1558 Кбит/сек
Ширина : 720 пикселей
Высота : 400 пикселей
Соотношение сторон : 16:9
Частота кадров : 25,000 кадров/сек
Цветовое пространство : YUV
Субдискретизация насыщенности : 4:2:0
Битовая глубина : 8 бит
Тип развёртки : Прогрессивная
Метод сжатия : С потерями
Бит/(Пиксели*Кадры) : 0.216
Размер потока : 1,09 Гбайт (80%)
Библиотека кодирования : XviD 1.2.0.dev47 (UTC 2006-11-01)
Аудио
Идентификатор : 1
Формат : AC-3
Формат/Информация : Audio Coding 3
Расширение режима : CM (complete main)
Идентификатор кодека : 2000
Продолжительность : 1 ч. 40 м.
Вид битрейта : Постоянный
Битрейт : 384 Кбит/сек
Каналы : 6 каналов
Расположение каналов : Front: L C R, Side: L R, LFE
Частота : 48,0 КГц
Битовая глубина : 16 бит
Метод сжатия : С потерями
Размер потока : 275 Мбайт (20%)
Выравнивание : Разделение по промежуткам
Продолжительность промежутка : 40 мс. (1,00 видеокадр)
Время предзагрузки промежутка : 500 мс.
Download / Скачать

Хотите скачать бесплатно? Зарегистрируйтесь на сайте (ссылка на регистрацию). Pirat.ca - самый быстрый торрент трекер в рунете!

Как скачивать  ·   Что такое торрент  ·   Рейтинг и ограничения

Пост 07-Мар-2012 16:36 (спустя 29 минут)

Топик был перенесен из форума Наше Кино в форум Новинки (HD|DVD|BD|TV|SAT|PDTV| - Rips)

Чужая
 

xxxLOGICxxx

Корсар

Пост 07-Мар-2012 19:09 (спустя 3 часа)

[Q] 

[Профиль]  [ЛС] 

Пост 09-Апр-2012 12:15 (спустя 1 месяц 1 день)

Топик был перенесен из форума Новинки (HD|DVD|BD|TV|SAT|PDTV| - Rips) в форум Российские фильмы

ara1205
 

CHARLI2236

1096

Пост 25-Июл-2013 19:10 (спустя 1 год 4 месяца)

[Q] 

1

_________________
[Профиль]  [ЛС] 

M0RFEY

Шкипер

Пост 15-Май-2014 20:11 (спустя 9 месяцев 21 день)

[Q] 

Спасибо большое, давно искал!

_________________

[Профиль]  [ЛС] 
Показать сообщения:    
Ответить на тему

Текущее время: Сегодня 09:59

Часовой пояс: GMT + 4



Вы не можете начинать темы
Вы не можете отвечать на сообщения
Вы не можете редактировать свои сообщения
Вы не можете удалять свои сообщения
Вы не можете голосовать в опросах
Вы не можете прикреплять файлы к сообщениям
Вы не можете скачивать файлы

▼ Вниз