ML
     
  Уважаемый Гость!
Вы можете поддержать проект и зарегистрироваться у наших партнеров - онлайн-стратегия MyLands. При регистрации в игре Вы получите код, который сможете активировать после регистрации на pirat.ca и получить 1000 дублонов.

Ваш код:
ec3b26eefbcdc72e08e9fd33c6846bb2ca10f8b1
 
     

Моя безумная семья (Ренат Давлетьяров) [2011 г., комедия, HDRip-AVC][internal release]

Ответить на тему
 
Автор
Сообщение

Пост 07-Мар-2012 20:00

[Q] 

zyyx

--Моя безумная семья-- Год выпуска: 2011
Мировая премьера: 5 января 2012
Российская премьера: 5 января 2012, «Двадцатый Век Фокс СНГ»
Дата выхода DVD: 1 марта 2012, «Двадцатый Век Фокс СНГ»
Дата выхода Blu-Ray: 1 марта 2012, «Двадцатый Век Фокс СНГ»
Производство: Россия
Жанр: комедия
Продолжительность: 01:23:53
Перевод: Не требуется [лицензия]
Режиссер: Ренат Давлетьяров
В ролях: Иван Стебунов, Аглая Шиловская, Леонид Ярмольник, Мария Шукшина, Андрей Ургант, Лариса Удовиченко, Андрей Панин, Анна Ардова, Ольга Орлова, Вячеслав Манучаров
Описание: Родителей не выбирают! Но что делать, если после знакомства с твоими домочадцами подружки уходят навсегда? А тут появляется девушка мечты и настает время знакомить ее с семьей!
Главный герой находит оригинальный выход: нанимает актеров из рекламного ролика, чтобы те сыграли его семью. Однако идеальный план выходит из-под контроля, ситуация накаляется и наш герой вынужден идти на крайние меры, чтобы не потерять любимую девушку и свою семью.
Источник/Качество: HDRip-AVC | Сэмпл
Формат: MKV
Видео кодек: H.264
Аудио кодек: AC3
Видео: 1024x464, 23.976 fps, 2045 Kbps, 0.175 bit/pixel
Аудио: 48.0 KHz, 6 ch, 448 Kbps
General
Complete name : D:\zyyx\Moja.bezumnaja.semja.2011HDRip-AVC.zyyx.mkv
Format : Matroska
File size : 1.46 GiB
Duration : 1h 23mn
Overall bit rate : 2 493 Kbps
Movie name : Моя безумная семья 2011 - Release for zyyx
Encoded date : UTC 2012-03-07 15:54:26
Writing application : mkvmerge v4.6.0 ('Still Crazy After All These Years') сборка от Mar 13 2011 18:33:29
Writing library : libebml v1.2.0 + libmatroska v1.1.0
Video
ID : 1
Format : AVC
Format/Info : Advanced Video Codec
Format profile : [email protected]
Format settings, CABAC : Yes
Format settings, ReFrames : 16 frames
Muxing mode : Container [email protected]
Codec ID : V_MPEG4/ISO/AVC
Duration : 1h 23mn
Bit rate : 1 996 Kbps
Nominal bit rate : 2 045 Kbps
Width : 1 024 pixels
Height : 464 pixels
Display aspect ratio : 2.2:1
Frame rate : 23.976 fps
Resolution : 24 bits
Colorimetry : 4:2:0
Scan type : Progressive
Bits/(Pixel*Frame) : 0.175
Stream size : 1.17 GiB (80%)
Writing library : x264 core 114 r1924 08d04a4
Audio
ID : 2
Format : AC-3
Format/Info : Audio Coding 3
Codec ID : A_AC3
Duration : 1h 23mn
Bit rate mode : Constant
Bit rate : 448 Kbps
Channel(s) : 6 channels
Channel positions : Front: L C R, Surround: L R, LFE
Sampling rate : 48.0 KHz
Stream size : 269 MiB (18%)






Download / Скачать

Хотите скачать бесплатно? Зарегистрируйтесь на сайте (ссылка на регистрацию). Pirat.ca - самый быстрый торрент трекер в рунете!

Как скачивать  ·   Что такое торрент  ·   Рейтинг и ограничения

Пост 07-Мар-2012 21:27 (спустя 1 час 27 минут)

Топик был перенесен из форума Наше Кино в форум Новинки (HD|DVD|BD|TV|SAT|PDTV| - Rips)

Чужая
 

nokia_series

Корсар

Пост 08-Мар-2012 18:12 (спустя 22 часа)

[Q] 

Спасибо.
[Профиль]  [ЛС] 

Fes

Шкипер

Пост 09-Мар-2012 00:08 (спустя 5 часов)

[Q] 

[Профиль]  [ЛС] 

MaXoR

Флибустьер

1470

Пост 10-Мар-2012 21:56 (спустя 1 день 21 час)

[Q] 

Как фильм?Еврейский новый год?

_________________
Живы будем - не помрем!
[Профиль]  [ЛС] 

clark

Морской Волк

Пост 10-Мар-2012 22:44 (спустя 48 минут)

[Q] 

как фильмец, стоит смотреть

_________________
Последним смеётся тот, кто стреляет первым.
[Профиль]  [ЛС] 

Aleha6346

Морской Волк

428

Пост 13-Мар-2012 16:49 (спустя 2 дня 18 часов)

[Q] 

[Профиль]  [ЛС] 

Пост 29-Мар-2012 14:57 (спустя 15 дней)

Топик был перенесен из форума Новинки (HD|DVD|BD|TV|SAT|PDTV| - Rips) в форум Российские фильмы

ara1205
 
Показать сообщения:    
Ответить на тему

Текущее время: Сегодня 03:48

Часовой пояс: GMT + 4



Вы не можете начинать темы
Вы не можете отвечать на сообщения
Вы не можете редактировать свои сообщения
Вы не можете удалять свои сообщения
Вы не можете голосовать в опросах
Вы не можете прикреплять файлы к сообщениям
Вы не можете скачивать файлы

▼ Вниз