ML
     
  Уважаемый Гость!
Вы можете поддержать проект и зарегистрироваться у наших партнеров - онлайн-стратегия MyLands. При регистрации в игре Вы получите код, который сможете активировать после регистрации на pirat.ca и получить 1000 дублонов.

Ваш код:
ec3b26eefbcdc72e08e9fd33c6846bb2ca10f8b1
 
     

Миллионер (Сергей Чекалов) [2012 г., мелодрама, SATRip]

Ответить на тему
 
Автор
Сообщение

Пост 08-Мар-2012 21:26

[Q] 

Muka1

Шкипер

Миллионер Информация о фильме
Год выпуска: 2012
Жанр: мелодрама
Выпущено: Украина
Продолжительность: 01:40:36
Режиссер: Сергей Чекалов
В ролях: Людмила Курепова (Варфоломеева), Юлия Галкина, Карина Андоленко, Андрей Кузичёв, Майя Кузьмишина, Михаил Тарабукин

Описание
Кирилл Макаров – отличник в архитектурном институте, что сулит ему замечательную карьеру. Да и невеста – красавица у него имеется. Она, к тому же, дочь состоятельного, влиятельного человека. Но Кирилл не желает поступиться принципами и воспользоваться протекцией своего тестя. Более того, он понимает, что с Викой у него разные взгляды на жизнь. Он разрывает помолвку, и в этот же день встречает Лену, обычную студентку пединститута. Прошло десять лет. Кирилл и Лена женаты. Однако карьера Кирилла не сложилась, семья его живёт, в основном, на зарплату Лены. Олег, друг Кирилла, уговаривает его подать на один городской конкурс один из своих проектов. Однако Кирилл уверен, что там ему делать нечего без связей и протекции. Кирилл всерьёз задумывается о том, что в своё время совершил ошибку, порвав все связи с Викторией. И вот, когда он уверен, что совершил ошибку, он получает возможность всё исправить, вернувшись в прошлое...

Источник/Качество: SATRip
Формат: AVI
Видео кодек: XviD
Аудио кодек: MP3
Видео: XviD, 1993 kb/s, 704x384, 25 fps
Аудио: MP3, 128 kb/s, 2 канала, 48.0 KHz
General
Complete name : C:\Users\U\Downloads\Millioner.2012.SATRip.avi
Format : AVI
Format/Info : Audio Video Interleave
File size : 1.50 GiB
Duration : 1h 40mn
Overall bit rate : 2 131 Kbps
Writing application : VirtualDubMod 1.5.10.3 | www.virtualdub-fr.org || (build 2550/release)
Writing library : VirtualDubMod build 2550/release
Video
ID : 0
Format : MPEG-4 Visual
Format profile : Advanced [email protected]
Format settings, BVOP : 2
Format settings, QPel : No
Format settings, GMC : No warppoints
Format settings, Matrix : Default (H.263)
Muxing mode : Packed bitstream
Codec ID : XVID
Codec ID/Hint : XviD
Duration : 1h 40mn
Bit rate : 1 993 Kbps
Width : 704 pixels
Height : 384 pixels
Display aspect ratio : 16:9
Frame rate : 25.000 fps
Color space : YUV
Chroma subsampling : 4:2:0
Bit depth : 8 bits
Scan type : Progressive
Compression mode : Lossy
Bits/(Pixel*Frame) : 0.295
Stream size : 1.40 GiB (94%)
Writing library : XviD 64
Audio
ID : 1
Format : MPEG Audio
Format version : Version 1
Format profile : Layer 3
Mode : Joint stereo
Codec ID : 55
Codec ID/Hint : MP3
Duration : 1h 40mn
Bit rate mode : Constant
Bit rate : 128 Kbps
Channel(s) : 2 channels
Sampling rate : 48.0 KHz
Compression mode : Lossy
Stream size : 92.1 MiB (6%)
Alignment : Aligned on interleaves
Interleave, duration : 40 ms (1.00 video frame)
Interleave, preload duration : 504 ms
Download / Скачать

Хотите скачать бесплатно? Зарегистрируйтесь на сайте (ссылка на регистрацию). Pirat.ca - самый быстрый торрент трекер в рунете!

Как скачивать  ·   Что такое торрент  ·   Рейтинг и ограничения

Пост 08-Мар-2012 23:19 (спустя 1 час 53 минуты)

Топик был перенесен из форума Наше Кино в форум Новинки (HD|DVD|BD|TV|SAT|PDTV| - Rips)

Кошка
 

Fes

Шкипер

Пост 09-Мар-2012 00:06 (спустя 2 часа 39 минут)

[Q] 

[Профиль]  [ЛС] 

sexy911

Шкипер

1

Пост 09-Мар-2012 02:02 (спустя 1 час 56 минут)

[Q] 

Fes, и не стоит,тем более сёдня по телику покажут

_________________
Подпись отключена за нарушение правил форума
[Профиль]  [ЛС] 

xxxLOGICxxx

Корсар

Пост 09-Мар-2012 09:29 (спустя 7 часов)

[Q] 

[Профиль]  [ЛС] 

gfill

Шкипер

Пост 09-Мар-2012 15:37 (спустя 6 часов)

[Q] 

спасибо
[Профиль]  [ЛС] 

ficus42

Корсар

Пост 09-Мар-2012 16:35 (спустя 58 минут)

[Q] 

Будем посмотреть.
[Профиль]  [ЛС] 

Fes

Шкипер

Пост 10-Мар-2012 20:04 (спустя 1 день 3 часа)

[Q] 

как фильм то?)
[Профиль]  [ЛС] 

wirtual

Гроза морей

Пост 12-Мар-2012 18:15 (спустя 1 день 22 часа)

[Q] 

поглядим

_________________
не будешь делиться - останешься одноклеточным
[Профиль]  [ЛС] 

Hombre250

Морской Волк

Пост 12-Мар-2012 21:48 (спустя 3 часа)

[Q] 

спасибо
[Профиль]  [ЛС] 

AeroMaxMax

Морской Волк

192

Пост 17-Мар-2012 00:34 (спустя 4 дня)

[Q] 

Как фильм?

_________________
AeroMax
[Профиль]  [ЛС] 

gfill

Шкипер

Пост 18-Апр-2012 15:45 (спустя 1 месяц 1 день)

[Q] 

[Профиль]  [ЛС] 

Kap_Blad

Шкипер

Пост 28-Июн-2013 21:19 (спустя 1 год 2 месяца)

[Q] 

Если вы частенько задаете себе вопрос - а что было-бы, если б в определенный момент в прошлов я пошел бы по другому пути - какой была бы моя жизнь ?? Лучше или хуже ? .. вот главному герою в процессе фильма и представился такой шанс - увидеть к чему приведет такой поворот ..
[Профиль]  [ЛС] 

CHARLI2236

1089

Пост 25-Июл-2013 19:14 (спустя 26 дней)

[Q] 

6

_________________
[Профиль]  [ЛС] 
Показать сообщения:    
Ответить на тему

Текущее время: Сегодня 03:51

Часовой пояс: GMT + 4



Вы не можете начинать темы
Вы не можете отвечать на сообщения
Вы не можете редактировать свои сообщения
Вы не можете удалять свои сообщения
Вы не можете голосовать в опросах
Вы не можете прикреплять файлы к сообщениям
Вы не можете скачивать файлы

▼ Вниз