ML
     
  Уважаемый Гость!
Вы можете поддержать проект и зарегистрироваться у наших партнеров - онлайн-стратегия MyLands. При регистрации в игре Вы получите код, который сможете активировать после регистрации на pirat.ca и получить 1000 дублонов.

Ваш код:
69f316be79867e9bf99caee9682d20bb11964507
 
     

4 дня в мае (Ахим фон Боррис) [2011 г., драма, военный, HDRip-AVC] (Лицензия) [internal release]

Ответить на тему
 
Автор
Сообщение

Пост 09-Мар-2012 18:28

[Q] 

zyyx

--4 дня в мае
«Иногда граница проходит не между своими и чужими, а между добром и злом»
-- Год выпуска: 2011
Мировая премьера: 9 августа 2011
Российская премьера: 16 февраля 2012, «Парадиз»
Дата выхода DVD: 13 марта 2012, «Парадиз Видео»
Дата выхода Blu-Ray: 13 марта 2012, «Парадиз Видео»
Производство: Россия, Германия, Украина
Жанр: драма, военный
Продолжительность: 01:37:17
Перевод: Не требуется [Лицензия]
Субтитры: отсутствуют
Режиссер: Ахим фон Боррис
В ролях
Павел Вензел, Алексей Гуськов, Иван Шведов, Андрей Мерзликин, Сергей Легостаев, Максим Ковалевский, Евгений Ситохин, Владимир Свирский, Григорий Добрыгин, Анджелина Хэнч
Описание
Группу русских солдат отправляют в Северную Германию в конце Второй мировой войны, где они занимают детский дом в непосредственной близости от большой немецкой части. Несмотря на все разногласия здесь формируется дружба между немецким сиротой и бездетным советским капитаном.
Источник/Качество: HDRip-AVC | Сэмпл
Формат: MKV
Видео кодек: H.264
Аудио кодек: AC3
Видео: 1008x544, 24.000 fps, 1765 Kbps, 0.131 bit/pixel
Аудио: 48.0 KHz, 6 ch, 384 Kbps
General
Complete name : D:\zyyx\4.dnja.v.mae.2011.HDRip-AVC.zyyx.mkv
Format : Matroska
File size : 1.46 GiB
Duration : 1h 37mn
Overall bit rate : 2 148 Kbps
Movie name : 4 дня в мае 2011 - Release for zyyx
Encoded date : UTC 2012-03-09 14:31:52
Writing application : mkvmerge v4.6.0 ('Still Crazy After All These Years') сборка от Mar 13 2011 18:33:29
Writing library : libebml v1.2.0 + libmatroska v1.1.0
Video
ID : 1
Format : AVC
Format/Info : Advanced Video Codec
Format profile : [email protected]
Format settings, CABAC : Yes
Format settings, ReFrames : 16 frames
Muxing mode : Container [email protected]
Codec ID : V_MPEG4/ISO/AVC
Duration : 1h 37mn
Bit rate : 1 722 Kbps
Nominal bit rate : 1 765 Kbps
Width : 1 008 pixels
Height : 544 pixels
Display aspect ratio : 1.853
Frame rate : 24.000 fps
Resolution : 24 bits
Colorimetry : 4:2:0
Scan type : Progressive
Bits/(Pixel*Frame) : 0.131
Stream size : 1.17 GiB (80%)
Writing library : x264 core 114 r1924 08d04a4
Audio
ID : 2
Format : AC-3
Format/Info : Audio Coding 3
Codec ID : A_AC3
Duration : 1h 37mn
Bit rate mode : Constant
Bit rate : 384 Kbps
Channel(s) : 6 channels
Channel positions : Front: L C R, Surround: L R, LFE
Sampling rate : 48.0 KHz
Stream size : 267 MiB (18%)






Download / Скачать

Хотите скачать бесплатно? Зарегистрируйтесь на сайте (ссылка на регистрацию). Pirat.ca - самый быстрый торрент трекер в рунете!

Как скачивать  ·   Что такое торрент  ·   Рейтинг и ограничения

Принц Датский

Корсар

Пост 09-Мар-2012 18:54 (спустя 25 минут)

[Q] 

фильм-бредятина!!!за раздачу-респект.

_________________
[Профиль]  [ЛС] 

SAva_red@

Корсар

Пост 10-Мар-2012 01:19 (спустя 6 часов)

[Q] 

[Профиль]  [ЛС] 

Пост 10-Мар-2012 02:56 (спустя 1 час 37 минут)

Топик был перенесен из форума Наше Кино в форум Новинки (HD|DVD|BD|TV|SAT|PDTV| - Rips)

Кошка
 

NewTor

Гроза морей

Пост 14-Мар-2012 18:48 (спустя 4 дня)

[Q] 

События кажутся, мягко говоря, маловероятными...
[Профиль]  [ЛС] 

strikeF

Корсар

Пост 07-Апр-2012 03:45 (спустя 23 дня)

[Q] 

[Профиль]  [ЛС] 

waiter25

Лоцман

Пост 07-Апр-2012 09:55 (спустя 6 часов)

[Q] 

русофобское дерьмо! автор этой хрени - мразь редкостная, партизан на тебя нет гнида фашистская.
[Профиль]  [ЛС] 

agel

Лоцман

Пост 08-Апр-2012 09:41 (спустя 23 часа)

[Q] 

а вы считаете что таких пьяных командиров - уродов небыло ? или что солдаты не шпилили все что попадалось под руки ?
ну насчет обьединения с немцами - это сценарист преукрасил .....
Фильм хороший , .
[Профиль]  [ЛС] 

Пост 09-Апр-2012 12:19 (спустя 1 день 2 часа)

Топик был перенесен из форума Новинки (HD|DVD|BD|TV|SAT|PDTV| - Rips) в форум Российские фильмы

ara1205
 

elena.vorobyeva

Морской Волк

Пост 10-Апр-2012 10:33 (спустя 2 дня)

[Q] 

На бытовом плеере этот формат будет смотреться?
[Профиль]  [ЛС] 

komariys

Лоцман

Пост 10-Апр-2012 23:02 (спустя 12 часов)

[Q] 

Концовка бредовая, солдаты прошедшие всю войну стреляют в своих. если честно надоело, что последнее время красную армию и власть смешивают с дерьмом. Теперь белые у нас в приоритете, а красный командир сущий демон и насильник всего человечества. Пол жизни хаяли одних, а теперь других. Через лет 50 будут сегодняшние дни тоже будут называть режимом. Дерьма во все времена хватало и сейчас его полно, только хороших людей у нас всегда было больше.
[Профиль]  [ЛС] 

chupdima

Лоцман

Пост 22-Апр-2012 23:10 (спустя 12 дней)

[Q] 

ну судя по отзывам очень хочется посмотреть просто люблю я эту тематику
качаю
лижбы хватило меня это высмотреть
[Профиль]  [ЛС] 

h19

Лоцман

Пост 06-Май-2012 09:16 (спустя 13 дней)

[Q] 

Для тех, кто считает события маловероятными, концовку бредовой, а автора - мразью, вот описание реальных событий:
ссылка удалена модератором. Устное предупреждение - ссылки на сторонние ресурсы запрещены! erchine
[Профиль]  [ЛС] 

xamaro

Лоцман

Пост 06-Май-2012 19:14 (спустя 9 часов)

[Q] 

Для тех, кто считает события маловероятными, концовку бредовой, а автора - мразью, вот описание реальных событий:
ссылка удалена модератором
ссылка удалена модератором
Устное предупреждение. erchine
[Профиль]  [ЛС] 

Юрий1966

Морской Волк

Пост 06-Май-2012 23:45 (спустя 4 часа)

[Q] 

Благодарю!
[Профиль]  [ЛС] 

h19

Лоцман

Пост 11-Май-2012 00:30 (спустя 4 дня)

[Q] 

Для тех, кто считает события маловероятными, концовку бредовой, а автора - мразью, описание реальных событий можно найти гуглом, первая ссылка по запросу:
"05.05.45 г. командованием 2Уд.А при производстве рекогносцировки местности в северной части о. Рюген, на отрезке шоссе между населенными пунктами Варнкевиц и Путгартен был обнаружен частный женский пансионат для слепых"
[Профиль]  [ЛС] 

okorm

889

Пост 04-Май-2013 06:38 (спустя 11 месяцев 24 дня)

[Q] 

[Профиль]  [ЛС] 
Показать сообщения:    
Ответить на тему

Текущее время: Сегодня 14:33

Часовой пояс: GMT + 4



Вы не можете начинать темы
Вы не можете отвечать на сообщения
Вы не можете редактировать свои сообщения
Вы не можете удалять свои сообщения
Вы не можете голосовать в опросах
Вы не можете прикреплять файлы к сообщениям
Вы не можете скачивать файлы

▼ Вниз