ML
     
  Уважаемый Гость!
Вы можете поддержать проект и зарегистрироваться у наших партнеров - онлайн-стратегия MyLands. При регистрации в игре Вы получите код, который сможете активировать после регистрации на pirat.ca и получить 1000 дублонов.

Ваш код:
ef8b3e8cd07bec918273586d22e5aaf18e0ae925
 
     

Остров (Павел Лунгин) [2006 г., драма, DVDRip]

Ответить на тему
 
Автор
Сообщение

Пост 12-Мар-2012 15:02

[Q] 

Creed72

Остров
«Здесь происходит необъяснимое»
Год выпуска: 2006
Жанр: драма
Продолжительность: 112 мин. / 01:52:00
Режиссер: Павел Лунгин
В ролях: Петр Мамонов, Виктор Сухоруков, Дмитрий Дюжев, Юрий Кузнецов, Виктория Исакова, Нина Усатова, Яна Есипович, Ольга Демидова, Тимофей Трибунцев, Алексей Зеленский, Борис Пантюхин, Виктор Николашин, Федор Старых, Сергей Шарапов, Вадим Корюзлов, Валерий Лисин, Наталья Лященко, Никита Тарасов, Светлана Обидина, Гриша Степунов, Сергей Бурунов
Описание: Вторая мировая война. Баржу, на которой Анатолий и его старший товарищ Тихон перевозят уголь, захватывает немецкий сторожевой корабль. Вымаливая пощаду у немцев, Анатолий совершает предательство — расстреливает Тихона. Немцы оставляют труса на заминированной барже, но благодаря помощи монахов, проживающих в монастыре на острове, ему удается выжить.
Проходят годы. Старца Анатолия почитают за праведную жизнь и поистине чудесную помощь, которую он оказывает приехавшим сюда людям. Однако страшный грех убийства, совершенный им во время войны, не дает ему покоя. Чувствуя приближение своей кончины, Анатолий готовится к смерти и пока не знает, что скоро будет прощен…
- «Остров» — фильм официальной церемонии открытия XVII российского кинофестиваля «Кинотавр» (июнь 2006 года).
- «Остров» — фильм официальной церемонии закрытия 63-го Международного кинофестиваля в Венеции (сентябрь 2006 года).
- Гран-при — приз зрительских симпатий за лучший игровой фильм в программе «Великолепная семерка «МК» — и приз за лучшую мужскую роль (Петр Мамонов) на фестивале газеты «Московский комсомолец» «Московская премьера» (сентябрь 2006 года).
- Фильм — участник программы Visions международного кинофестиваля в Торонто.
- Фильм — обладатель приза зрительских симпатий и приза за лучшую мужскую роль на фестивале в Онфлере (Франция).
- Фильм — обладатель 6 национальных кинопремий "Золотой Орел" в категориях:
* Лучший игровой фильм — продюсеры Сергей Шумаков и Павел Лунгин.
* Лучшая режиссерская работа — Павел Лунгин.
Источник/Качество: DVDRip
Формат: AVI
Видео кодек: DivX
Аудио кодек: AC3
Видео: 720x304 (2,35:1), 25 fps, DivX 5 ~2218 kbps avg, 0.405 bit/pixel
Аудио: 48 kHz, AC3 Dolby Digital, 3/2 (L,C,R,l,r) + LFE ch, ~448.00 kbps avg
Общее
Полное имя : D:\Фдиск\торренты\Ostrov.2006.DivX.DVDRip.avi
Формат : AVI
Формат/Информация : Audio Video Interleave
Профиль формата : OpenDML
Размер файла : 2,05 Гбайт
Продолжительность : 1 ч. 49 м.
Общий поток : 2678 Кбит/сек
Программа кодирования : VirtualDubMod 1.5.10.2 (build 2540/release)
Библиотека кодирования : VirtualDubMod build 2540/release
Видео
Идентификатор : 0
Формат : MPEG-4 Visual
Параметр BVOP формата : 1
Параметр QPel формата : Нет
Параметр GMC формата : Без точки перехода
Параметр матрицы формата : Default (MPEG)
Режим смешивания : Сжатый битовый поток
Идентификатор кодека : DX50
Идентификатор кодека/Подсказка : DivX 5
Продолжительность : 1 ч. 49 м.
Битрейт : 2218 Кбит/сек
Ширина : 720 пикселей
Высота : 304 пикселя
Соотношение сторон : 2,35:1
Частота кадров : 25,000 кадров/сек
Цветовое пространство : YUV
Субдискретизация насыщенности : 4:2:0
Битовая глубина : 8 бит
Тип развёртки : Прогрессивная
Метод сжатия : С потерями
Бит/(Пиксели*Кадры) : 0.405
Размер потока : 1,70 Гбайт (83%)
Библиотека кодирования : DivX 5.2.1 (WaffleDay) (UTC 2004-09-08)
Аудио
Идентификатор : 1
Формат : AC-3
Формат/Информация : Audio Coding 3
Расширение режима : CM (complete main)
Идентификатор кодека : 2000
Продолжительность : 1 ч. 49 м.
Вид битрейта : Постоянный
Битрейт : 448 Кбит/сек
Каналы : 6 каналов
Расположение каналов : Front: L C R, Side: L R, LFE
Частота : 48,0 КГц
Битовая глубина : 16 бит
Метод сжатия : С потерями
Размер потока : 352 Мбайт (17%)
Выравнивание : Разделение по промежуткам
Продолжительность промежутка : 40 мс. (1,00 видеокадр)
Время предзагрузки промежутка : 500 мс.
Раздача обновлена администрацией
Download / Скачать

Хотите скачать бесплатно? Зарегистрируйтесь на сайте (ссылка на регистрацию). Pirat.ca - самый быстрый торрент трекер в рунете!

Как скачивать  ·   Что такое торрент  ·   Рейтинг и ограничения



Последний раз редактировалось: Creed72 (2012-06-27 04:22), всего редактировалось 2 раз(а)

Пост 12-Мар-2012 16:15 (спустя 1 час 12 минут)

Топик был перенесен из форума Наше Кино в форум Российские фильмы

ara1205
 

legion226

Шкипер

Пост 15-Мар-2012 14:18 (спустя 2 дня 23 часа)

[Q] 

Отличный фильм
[Профиль]  [ЛС] 

VaNo192

Корсар

Пост 15-Мар-2012 15:36 (спустя 1 час 18 минут)

[Q] 

[Профиль]  [ЛС] 

pro100userspb

Корсар

Пост 19-Мар-2012 13:31 (спустя 3 дня)

[Q] 

Мамонов хорош!

_________________
[Профиль]  [ЛС] 

AXILLES

Штурман

Пост 19-Мар-2012 14:12 (спустя 40 минут)

[Q] 

[Профиль]  [ЛС] 

Пост 28-Июн-2012 17:44 (спустя 3 месяца 9 дней)

Топик был перенесен из форума Подвал (для восстановления раздач) в форум Российские фильмы

erchine
 

xdgx

Флибустьер

Пост 16-Мар-2013 14:01 (спустя 11 месяцев 27 дней)

[Q] 

[Профиль]  [ЛС] 

kmv01

Гроза морей

Пост 24-Мар-2013 13:27 (спустя 7 дней)

[Q] 

Спасибо!!
[Профиль]  [ЛС] 

Прораб

Легенда

Пост 30-Июл-2013 01:20 (спустя 4 месяца 5 дней)

[Q] 

Вот спасибо.
Лови бочку

_________________
Config comp: CPU-i7-2600K/RAM-32Gb/GF580GTX-1536Mb/RAID0(2 SSD-480GB)+RAID5(8 HDD-20Tb)/Win7 64bit.
[Профиль]  [ЛС] 

kudrjavy

Флибустьер

Пост 02-Авг-2013 03:41 (спустя 3 дня)

[Q] 

Пасиб!))

_________________
Девушки-как печеньки: ломаются,пока не намокнут...
[Профиль]  [ЛС] 

Aurums

Корсар

Пост 27-Авг-2013 10:38 (спустя 25 дней)

[Q] 

Фильм с душой. 10/10
[Профиль]  [ЛС] 

uzus740

Лоцман

Пост 12-Дек-2013 19:33 (спустя 3 месяца 16 дней)

[Q] 

!COOL! Качают ВСЕ!!! 10 из 10
[Профиль]  [ЛС] 
Показать сообщения:    
Ответить на тему

Текущее время: Сегодня 18:36

Часовой пояс: GMT + 4



Вы не можете начинать темы
Вы не можете отвечать на сообщения
Вы не можете редактировать свои сообщения
Вы не можете удалять свои сообщения
Вы не можете голосовать в опросах
Вы не можете прикреплять файлы к сообщениям
Вы не можете скачивать файлы

▼ Вниз