ML
     
  Уважаемый Гость!
Вы можете поддержать проект и зарегистрироваться у наших партнеров - онлайн-стратегия MyLands. При регистрации в игре Вы получите код, который сможете активировать после регистрации на pirat.ca и получить 1000 дублонов.

Ваш код:
ec3b26eefbcdc72e08e9fd33c6846bb2ca10f8b1
 
     

Август. Восьмого (Джаник Файзиев) [2012 г., драма, военный, DVDRip] (лицензия) [internal release]

Страницы :  1, 2, 3, 4  След.

Ответить на тему
 
Автор
Сообщение

Пост 16-Мар-2012 20:30

[Q] 

goxakrauter

-Август
Восьмого
-- Год выпуска: 2012
Жанр: драма, военный
Продолжительность: 02:06:47--Режиссер: Джаник Файзиев
В ролях: Светлана Иванова, Максим Матвеев, Егор Бероев, Артем Фадеев, Владимир Вдовиченков, Сергей Газаров, Гоша Куценко, Анатолий Белый, Кирилл Плетнёв, Алексей Гуськов--Описание: Когда события нанизываются одно на другое, когда каждая минута ставит тебя перед выбором, когда жизнь и смерть становятся частью страшной компьютерной игры, пульт от которой — в чужих руках, тогда ты начинаешь действовать так, будто каждая минута — последняя.
Казалось бы, жизнь хорошенькой разведенной москвички Ксении оставляет не много места для драматических ситуаций: да, сын Тема тяжело переживает развод родителей, да, поклонник поглощен карьерой, да, мама вмешивается в личную жизнь, — но трудно назвать эти обстоятельства критическими.
Все меняется, когда бывший муж, офицер миротворческих сил, просит Ксению прислать Тему к нему, подышать горным воздухом в прекрасной деревушке в доме его родителей! Он уверяет, что это совершенно безопасно — да маленький Тема и не чувствует никакого страха, ведь рядом папа, добрый и непобедимый герой. Но наступает день, когда вражеские танки входят в город — и мир самых страшных игровых иллюзий мальчика становится реальностью. На экране оживают компьютерные драконы и злые космические демоны, втягивая живых людей в огненную вакханалию войны.
Ксения обязана выжить в военном аду, пройти через адскую мясорубку прошитого пулями города, чтобы спасти того кого любит. У нее нет другой цели — и нет другого пути.--КиноПоиск, Сэмпл --Источник/Качество: DVDRip (Рип с DVD-9)
Формат: AVI
Видео кодек: XviD
Аудио кодек: AC3
Видео: Xvid 720x304 25.00fps 1 084 Kbps
Аудио: Dolby AC3 48000Hz 6ch 448kbps--
General
Format : AVI
Format/Info : Audio Video Interleave
File size : 1.37 GiB
Duration : 2h 6mn
Overall bit rate : 1 541 Kbps
Writing application : VirtualDubMod 1.5.10.3 | www.virtualdub-fr.org || (build 2550/release)
Writing library : VirtualDubMod build 2550/release
Video
ID : 0
Format : MPEG-4 Visual
Format profile : Advanced [email protected]
Format settings, BVOP : 2
Format settings, QPel : No
Format settings, GMC : No warppoints
Format settings, Matrix : Default (H.263)
Codec ID : XVID
Codec ID/Hint : XviD
Duration : 2h 6mn
Bit rate : 1 084 Kbps
Width : 720 pixels
Height : 304 pixels
Display aspect ratio : 2.35:1
Frame rate : 25.000 fps
Color space : YUV
Chroma subsampling : 4:2:0
Bit depth : 8 bits
Scan type : Progressive
Compression mode : Lossy
Bits/(Pixel*Frame) : 0.198
Stream size : 983 MiB (70%)
Writing library : XviD 1.2.1 (UTC 2008-12-04)
Audio
ID : 1
Format : AC-3
Format/Info : Audio Coding 3
Mode extension : CM (complete main)
Codec ID : 2000
Duration : 2h 6mn
Bit rate mode : Constant
Bit rate : 448 Kbps
Channel(s) : 6 channels
Channel positions : Front: L C R, Side: L R, LFE
Sampling rate : 48.0 KHz
Bit depth : 16 bits
Compression mode : Lossy
Stream size : 406 MiB (29%)
Alignment : Split accross interleaves
Interleave, duration : 40 ms (1.00 video frame)
Interleave, preload duration : 500 ms
Download / Скачать

Хотите скачать бесплатно? Зарегистрируйтесь на сайте (ссылка на регистрацию). Pirat.ca - самый быстрый торрент трекер в рунете!

Как скачивать  ·   Что такое торрент  ·   Рейтинг и ограничения



Последний раз редактировалось: goxakrauter (2012-03-16 21:37), всего редактировалось 5 раз(а)

Пост 16-Мар-2012 20:36 (спустя 6 минут)

Топик был перенесен из форума Наше Кино в форум Новинки (HD|DVD|BD|TV|SAT|PDTV| - Rips)

ara1205
 

A.Net

Корсар

Пост 16-Мар-2012 20:52 (спустя 21 минута)

[Q] 

Спасибо.
[Профиль]  [ЛС] 

kiryandr

Легенда

63131

Пост 16-Мар-2012 21:12 (спустя 20 минут)

[Q] 

Спасибо,посмотрим!

_________________
[Профиль]  [ЛС] 

Amethyst

27349

Пост 16-Мар-2012 21:19 (спустя 7 минут)

[Q] 

[Профиль]  [ЛС] 

leonid.

Флибустьер

Пост 16-Мар-2012 21:38 (спустя 19 минут)

[Q] 

БЛАГОДАРЮ!
[Профиль]  [ЛС] 

KissMyAss

Лоцман

Пост 16-Мар-2012 21:45 (спустя 7 минут)

[Q] 

[Профиль]  [ЛС] 

gulyaka777

Морской Волк

Пост 16-Мар-2012 21:55 (спустя 9 минут)

[Q] 

спасибо, очень ждал
[Профиль]  [ЛС] 

alexkalchenko

Корсар

40

Пост 16-Мар-2012 22:14 (спустя 19 минут)

[Q] 

[Профиль]  [ЛС] 

sorvigolova

Корсар

798

Пост 16-Мар-2012 22:54 (спустя 40 минут)

[Q] 

спасибо!!!но смотреть буду только в HD 1080
[Профиль]  [ЛС] 

Дон Кихот

Корсар

Пост 16-Мар-2012 23:14 (спустя 20 минут)

[Q] 

[Профиль]  [ЛС] 

Woitler

Корсар

649

Пост 16-Мар-2012 23:18 (спустя 3 минуты)

[Q] 

Смотрел в кино, в день премьеры. Очень понравилось, всем советую.
[Профиль]  [ЛС] 

dimkoba

35101

Пост 17-Мар-2012 00:31 (спустя 1 час 12 минут)

[Q] 

во как оперативно

_________________
[Профиль]  [ЛС] 

singhbhai

Лоцман

Пост 17-Мар-2012 01:45 (спустя 1 час 14 минут)

[Q] 

спасибо
[Профиль]  [ЛС] 

gamm1beer

Морской Волк

Пост 17-Мар-2012 04:09 (спустя 2 часа 23 минуты)

[Q] 

это про абхазию что-ли

_________________
[Профиль]  [ЛС] 

vladik9

Корсар

Пост 17-Мар-2012 04:46 (спустя 37 минут)

[Q] 

[Профиль]  [ЛС] 

dimonpa

Гроза морей

Пост 17-Мар-2012 07:18 (спустя 2 часа 31 минута)

[Q] 

[Профиль]  [ЛС] 

nibl72

Шкипер

Пост 17-Мар-2012 08:00 (спустя 41 минута)

[Q] 


_________________
anime36 cm
[Профиль]  [ЛС] 

alexx69

Морской Волк

Пост 17-Мар-2012 09:21 (спустя 1 час 21 минута)

[Q] 


_________________
[Профиль]  [ЛС] 

Yrets

Флибустьер

159

Пост 17-Мар-2012 09:32 (спустя 11 минут)

[Q] 

[Профиль]  [ЛС] 

ss80

Флибустьер

36

Пост 17-Мар-2012 11:30 (спустя 1 час 57 минут)

[Q] 

[Профиль]  [ЛС] 

рустам

Лоцман

Пост 17-Мар-2012 11:53 (спустя 22 минуты)

[Q] 

спасибо за подарок после тяжелой недели!!!лично расцеловал бы!)))
[Профиль]  [ЛС] 

Ферзь

Корсар

Пост 17-Мар-2012 12:06 (спустя 13 минут)

[Q] 


_________________
[Профиль]  [ЛС] 

Zh84

Лоцман

Пост 17-Мар-2012 13:58 (спустя 1 час 51 минута)

[Q] 

[Профиль]  [ЛС] 

Evgeniy3102

Корсар

3

Пост 17-Мар-2012 17:17 (спустя 3 часа)

[Q] 

[Профиль]  [ЛС] 

VanoCHIN

Морской Волк

Пост 17-Мар-2012 17:25 (спустя 7 минут)

[Q] 

качаю, ждал!
[Профиль]  [ЛС] 

pogranec

Штурман

Пост 17-Мар-2012 17:42 (спустя 17 минут)

[Q] 

ЗАМЕЧАТЕЛЬНЫЙ ФИЛЬМ !!!!!!!!!!!!! ДЛЯ ТЕХ, КТО ЛЮБИТ СВОЮ СТРАНУ И РОДИНУ !!!!!!!!!!! bf cy
[Профиль]  [ЛС] 

goxakrauter ®

4539

Пост 17-Мар-2012 17:46 (спустя 3 минуты)

[Q] 

pogranec, фильм красивый и патриотичный, НО есть очень много не понятных, эпичных моментов =)
[Профиль]  [ЛС] 

pogranec

Штурман

Пост 17-Мар-2012 17:50 (спустя 4 минуты)

[Q] 

а мне всё... предельно понятно................ dg
[Профиль]  [ЛС] 

Дон Кихот

Корсар

Пост 17-Мар-2012 22:15 (спустя 4 часа)

[Q] 

Довольно таки симпатичный фильм
[Профиль]  [ЛС] 
Показать сообщения:    
Ответить на тему

Текущее время: Сегодня 03:50

Часовой пояс: GMT + 4



Вы не можете начинать темы
Вы не можете отвечать на сообщения
Вы не можете редактировать свои сообщения
Вы не можете удалять свои сообщения
Вы не можете голосовать в опросах
Вы не можете прикреплять файлы к сообщениям
Вы не можете скачивать файлы

▼ Вниз