ML
     
  Уважаемый Гость!
Вы можете поддержать проект и зарегистрироваться у наших партнеров - онлайн-стратегия MyLands. При регистрации в игре Вы получите код, который сможете активировать после регистрации на pirat.ca и получить 1000 дублонов.

Ваш код:
59354507ba913a0948d1a8f2e30f2e04c4cd7b9b
 
     

Гитлер капут! (Марюс Вайсберг) [2008 г., комедия, военный, DVDRip] (лицензия) [internal release]

Ответить на тему
 
Автор
Сообщение

Пост 17-Мар-2012 21:36

[Q] 

goxakrauter

-Гитлер капут!-- Год выпуска: 2008
Жанр: комедия, военный
Продолжительность: 01:34:35--Режиссер: Марюс Вайсберг
В ролях: Павел Деревянко, Анна Семенович, Эвелина Блёданс, Юрий Гальцев, Михаил Крылов (Шулейкин), Илья Олейников (Клявер), Юрий Стоянов, Алексей Булдаков, Михаил Галустян, Ксения Собчак, Анфиса Чехова, Тимур Юнусов (Тимати)--Описание: Русский супер-агент — строго засекреченный шпион Шура Осечкин, он же штандартенфюрер СС Олаф Шуренберг, самоотверженно и нахально ведет подрывную деятельность в ставке Гитлера. Войне скоро конец, и это уже понятно всем, кроме фанатичного фюрера и подозрительного Мюллера. Простые труженики Рейха давно махнули на все рукой, пустились в отрыв и бесшабашно тусуются по клубам. Шуренберг скучает по дому и выращивает помидоры в тайной теплице возле своего дома на 007-Штрассе.
Очередное задание Центра сваливается на него прямо с неба — вместе с новой помощницей, очаровательной и сексапильной радисткой Зиной, мечтой каждого мужчины. С такой боевой подругой недолго и про войну забыть! Но долг превыше всего: прежде чем вернуться на Родину и зажить счастливо вместе, супер-агентам Шуренбергу и Зине предстоит провернуть одну, последнюю и очень важную операцию.-- --Источник/Качество: DVDRip (Рип с DVD-9)
Формат: AVI
Видео кодек: XviD
Аудио кодек: AC3
Видео: Xvid 720x384 25.00fps 1 605 Kbps
Аудио: Dolby AC3 48000Hz 6ch 448kbps--
General
Format : AVI
Format/Info : Audio Video Interleave
File size : 1.36 GiB
Duration : 1h 34mn
Overall bit rate : 2 062 Kbps
Writing application : VirtualDubMod 1.5.10.3 | www.virtualdub-fr.org || (build 2550/release)
Writing library : VirtualDubMod build 2550/release
Video
ID : 0
Format : MPEG-4 Visual
Format profile : Advanced [email protected]
Format settings, BVOP : 2
Format settings, QPel : No
Format settings, GMC : No warppoints
Format settings, Matrix : Default (H.263)
Codec ID : XVID
Codec ID/Hint : XviD
Duration : 1h 34mn
Bit rate : 1 605 Kbps
Width : 720 pixels
Height : 384 pixels
Display aspect ratio : 1.875
Frame rate : 25.000 fps
Color space : YUV
Chroma subsampling : 4:2:0
Bit depth : 8 bits
Scan type : Progressive
Compression mode : Lossy
Bits/(Pixel*Frame) : 0.232
Stream size : 1.06 GiB (78%)
Writing library : XviD 1.2.1 (UTC 2008-12-04)
Audio
ID : 1
Format : AC-3
Format/Info : Audio Coding 3
Mode extension : CM (complete main)
Codec ID : 2000
Duration : 1h 34mn
Bit rate mode : Constant
Bit rate : 448 Kbps
Channel(s) : 6 channels
Channel positions : Front: L C R, Side: L R, LFE
Sampling rate : 48.0 KHz
Bit depth : 16 bits
Compression mode : Lossy
Stream size : 303 MiB (22%)
Alignment : Split accross interleaves
Interleave, duration : 40 ms (1.00 video frame)
Interleave, preload duration : 500 ms
Download / Скачать

Хотите скачать бесплатно? Зарегистрируйтесь на сайте (ссылка на регистрацию). Pirat.ca - самый быстрый торрент трекер в рунете!

Как скачивать  ·   Что такое торрент  ·   Рейтинг и ограничения

ZlobiN

Корсар

Пост 18-Мар-2012 08:43 (спустя 11 часов)

[Q] 

cv киношлак
[Профиль]  [ЛС] 

Пост 18-Мар-2012 14:20 (спустя 5 часов)

Топик был перенесен из форума Наше Кино в форум Российские фильмы

ara1205
 

baltimor337

Корсар

Пост 20-Мар-2012 01:40 (спустя 1 день 16 часов)

[Q] 

дстислюжис
[Профиль]  [ЛС] 

CHARLI2236

1091

Пост 25-Июн-2012 17:56 (спустя 3 месяца 5 дней)

[Q] 

благодарю

_________________
[Профиль]  [ЛС] 

Не даун

Лоцман

Пост 18-Июл-2012 17:14 (спустя 22 дня)

[Q] 

Хороший фильм bs

_________________
[Профиль]  [ЛС] 

hohol541

Корсар

Пост 29-Дек-2012 10:55 (спустя 5 месяцев 10 дней)

[Q] 

Снять такое?
[Профиль]  [ЛС] 

sokoloff62

Лоцман

Пост 07-Янв-2013 14:17 (спустя 9 дней)

[Q] 

Прикольная киношка! Спасибо!
[Профиль]  [ЛС] 
Показать сообщения:    
Ответить на тему

Текущее время: Сегодня 16:09

Часовой пояс: GMT + 4



Вы не можете начинать темы
Вы не можете отвечать на сообщения
Вы не можете редактировать свои сообщения
Вы не можете удалять свои сообщения
Вы не можете голосовать в опросах
Вы не можете прикреплять файлы к сообщениям
Вы не можете скачивать файлы

▼ Вниз