ML
     
  Уважаемый Гость!
Вы можете поддержать проект и зарегистрироваться у наших партнеров - онлайн-стратегия MyLands. При регистрации в игре Вы получите код, который сможете активировать после регистрации на pirat.ca и получить 1000 дублонов.

Ваш код:
156f85568ae63e45e07ac461c96a83ba1a876b0a
 
     

Мастер и Маргарита (Юрий Кара) [1994 г., Драма, комедия, детектив, DVDRip]

Ответить на тему
 
Автор
Сообщение

Пост 31-Окт-2011 01:22

[Q] 

Deco

Корсар

Мастер и Маргарита«Здесь укрылась нечистая сила»
Год выпуска: 1994
Российская премьера: 7 апреля 2011
Дата выхода DVD: 7 апреля 2011, «Люксор», «Мастер Дистрибьюшн»
Жанр: Драма, комедия, детектив
Продолжительность: 01:58:16
Режиссер: Юрий Кара
В ролях: Михаил Ульянов, Валентин Гафт, Анастасия Вертинская, Виктор Раков, Александр Филиппенко, Сергей Гармаш, Лев Дуров, Сергей Никоненко, Николай Бурляев, Леонид Куравлёв
Описание: Действие происходит в 1920—1930-е годы в сталинской Москве и в годы жизни Иисуса Христа в Ершалаиме. Мастер с гениальным озарением описал последние дни жизни Спасителя в своем романе о Понтии Пилате, за который поплатился свободой. Его тайная возлюбленная Маргарита готова на сделку с дьяволом, лишь бы спасти Мастера. В это время некто Воланд, посетивший Москву со своей свитой, наводит ужас на обывателей. Но в мире, где укоренилось зло, и засела нечистая сила, проделки сатаны, окрашенные искрометным юмором, оборачиваются возмездием за людские грехи и пороки.
Качество: DVDRip
Формат: AVI
Видео кодек: XviD
Аудио кодек: AC3
Видео: 720x544 (1.32:1), 25 fps, XviD build 50 ~2094 kbps avg, 0.21 bit/pixel
Аудио: 48 kHz, AC3 Dolby Digital, 3/2 (L,C,R,l,r) + LFE ch, ~384 kbps
Общее
Кол-во : 278
Кол-во потоков такого типа : 1
Тип потока : General
Тип потока : Общее
Идентификатор типа потока : 0
Кол-во видеопотоков : 1
Кол-во аудиопотоков : 1
Video_Format_List : MPEG-4 Visual
Video_Format_WithHint_List : MPEG-4 Visual (XviD)
Видеокодеки : XviD
Audio_Format_List : AC-3
Audio_Format_WithHint_List : AC-3
Аудиокодеки : AC3
Полное имя : C:\Users\Александр\Downloads\Master.i.Margarita.2011.O.DVDRip.avi
Имя папки : C:\Users\Александр\Downloads
Имя файла : Master.i.Margarita.2011.O.DVDRip
Расширение : avi
Формат : AVI
Формат : AVI
Формат/Информация : Audio Video Interleave
Формат/Используется в : avi
Коммерческое название : AVI
Профиль формата : OpenDML
Интернет-тип носителя : video/vnd.avi
Чередующаяся : Yes
Кодек : AVI
Кодек : AVI
Кодек/Информация : Audio Video Interleave
Кодек/Используется в : avi
Размер файла : 2204454912
Размер файла : 2,05 Гбайт
Размер файла : 2 Гбайт
Размер файла : 2,1 Гбайт
Размер файла : 2,05 Гбайт
Размер файла : 2,053 Гбайт
Продолжительность : 7096000
Продолжительность : 1 ч. 58 м.
Продолжительность : 1 ч. 58 м. 16 с. 0 мс.
Продолжительность : 1 ч. 58 м.
Продолжительность : 01:58:16.000
Общий поток : 2485293
Общий поток : 2485 Кбит/сек
Размер потока : 7972136
Размер потока : 7,60 Мбайт (0%)
Размер потока : 8 Мбайт
Размер потока : 7,6 Мбайт
Размер потока : 7,60 Мбайт
Размер потока : 7,603 Мбайт
Размер потока : 7,60 Мбайт (0%)
Пропорции потока : 0.00362
Заголовок : Master.i.Margarita.2011.O.DVDRip.KINOPARK
Название фильма : Master.i.Margarita.2011.O.DVDRip.KINOPARK
Режиссёр : R.G.KINOPARK
Дата файла : UTC 2011-10-05 06:18:46.100
Дата файла (местная) : 2011-10-05 10:18:46.100
Дата изменения файла : UTC 2011-10-30 20:54:00.104
Дата изменения файла (местная) : 2011-10-31 00:54:00.104
Программа кодирования : VirtualDubMod 1.5.4.1 (build 2178/release)
Правообладатель : 2011 (c) KINOPARK
Видео
Кол-во : 201
Кол-во потоков такого типа : 1
Тип потока : Video
Тип потока : Видео
Идентификатор типа потока : 0
Идентификатор : 0
Идентификатор : 0
Формат : MPEG-4 Visual
Коммерческое название : MPEG-4 Visual
Профиль формата : Advanced [email protected]
Настройки формата : BVOP1 / Custom Matrix
Параметр BVOP формата : 1
Параметр BVOP формата : 1
Параметр QPel формата : No
Параметр QPel формата : Нет
Параметр GMC формата : 0
Параметр GMC формата : Без точки перехода
Параметр матрицы формата : Custom
Параметр матрицы формата : Выборочная
Format_Settings_Matrix_Data : 0809090A0B0A0B0C0C0B0C0D0E0D0C0E0F10100F0E101011121110101212131414131212141516171615141618191918161A1C1D1C1A1E22221E262E26343448 / 1010101111111111111112121312121313141413131514151615141517161718181716171818191A1918181B1C1D1D1C1B202428242028303028343C3440406A
Интернет-тип носителя : video/MP4V-ES
Идентификатор кодека : XVID
Идентификатор кодека/Подсказка : XviD
Идентификатор кодека/Ссылка : http://mediaarea.net/XVID
Кодек : XVID
Кодек : XviD
Кодек/Семейство : MPEG-4V
Кодек/Информация : XviD project
Кодек/Ссылка : http://www.xvid.org/Downloads.15.0.html
Кодек/CC : XVID
Профиль кодека : Advanced [email protected]
Настройки кодека : BVOP / Custom Matrix
Параметр пакетного потока данных : No
Параметр BVOP кодека : Yes
Параметр QPel кодека : No
Параметр GMC кодека : 0
Параметр GMC кодека : Без точки перехода
Параметр матрицы кодека : Custom
Продолжительность : 7096000
Продолжительность : 1 ч. 58 м.
Продолжительность : 1 ч. 58 м. 16 с. 0 мс.
Продолжительность : 1 ч. 58 м.
Продолжительность : 01:58:16.000
Битрейт : 2092361
Битрейт : 2092 Кбит/сек
Ширина : 720
Ширина : 720 пикселей
Высота : 544
Высота : 544 пикселя
Пропорции пикселя : 1.000
Соотношение сторон : 1.324
Соотношение сторон : 4:3
Частота кадров : 25.000
Частота кадров : 25,000 кадров/сек
Счётчик кадров : 177400
Разрешение : 8
Разрешение : 8 бит
Колориметрия : 4:2:0
Цветовое пространство : YUV
Субдискретизация насыщенности : 4:2:0
Битовая глубина : 8
Битовая глубина : 8 бит
Тип развёртки : Progressive
Тип развёртки : Прогрессивная
Переплетение : PPF
Переплетение : Прогрессивная
Метод сжатия : Lossy
Метод сжатия : С потерями
Бит/(Пиксели*Кадры) : 0.214
Задержка : 0
Задержка : 00:00:00.000
Размер потока : 1855923928
Размер потока : 1,73 Гбайт (84%)
Размер потока : 2 Гбайт
Размер потока : 1,7 Гбайт
Размер потока : 1,73 Гбайт
Размер потока : 1,728 Гбайт
Размер потока : 1,73 Гбайт (84%)
Пропорции потока : 0.84190
Библиотека кодирования : XviD0050
Библиотека кодирования : XviD 1.2.1 (UTC 2008-12-04)
Библиотека кодирования/Имя : XviD
Библиотека кодирования/Version : 1.2.1
Библиотека кодирования/Дата : UTC 2008-12-04
Аудио
Кол-во : 197
Кол-во потоков такого типа : 1
Тип потока : Audio
Тип потока : Аудио
Идентификатор типа потока : 0
Идентификатор : 1
Идентификатор : 1
Формат : AC-3
Формат/Информация : Audio Coding 3
Коммерческое название : AC-3
Расширение режима : CM (complete main)
Идентификатор кодека : 2000
Кодек : AC3
Кодек : AC3
Кодек/Семейство : AC3
Кодек/Информация : Dolby AC3
Кодек/CC : 2000
Продолжительность : 7094976
Продолжительность : 1 ч. 58 м.
Продолжительность : 1 ч. 58 м. 14 с. 976 мс.
Продолжительность : 1 ч. 58 м.
Продолжительность : 01:58:14.976
Вид битрейта : CBR
Вид битрейта : Постоянный
Битрейт : 384000
Битрейт : 384 Кбит/сек
Каналы : 6
Каналы : 6 каналов
Расположение каналов : Front: L C R, Side: L R, LFE
Расположение каналов : 3/2/0.1
Частота : 48000
Частота : 48,0 КГц
Количество образцов : 340558848
Разрешение : 16
Разрешение : 16 бит
Битовая глубина : 16
Битовая глубина : 16 бит
Метод сжатия : Lossy
Метод сжатия : С потерями
Задержка : 0
Задержка : 00:00:00.000
Задержка в оригинале : Container
Задержка в оригинале : Контейнер
Задержка видео : 0
Задержка видео : 0
Размер потока : 340558848
Размер потока : 325 Мбайт (15%)
Размер потока : 325 Мбайт
Размер потока : 325 Мбайт
Размер потока : 325 Мбайт
Размер потока : 324,8 Мбайт
Размер потока : 325 Мбайт (15%)
Пропорции потока : 0.15449
Выравнивание : Split
Выравнивание : Разделение по промежуткам
Продолжительность промежутка : 2.40
Продолжительность промежутка : 96
Продолжительность промежутка : 96 мс. (2,40 видеокадра)
Время предзагрузки промежутка : 96
Время предзагрузки промежутка : 96 мс.
dialnorm : -27
dialnorm/String : -27 dB
compr : -0.28
compr/String : -0.28 dB
dynrng : -1.48
dynrng/String : -1.48 dB
bsid : 8
dialnorm_Average : -27
dialnorm_Average/String : -27 dB
dialnorm_Minimum : -27
dialnorm_Minimum/String : -27 dB
dialnorm_Maximum : -27
dialnorm_Maximum/String : -27 dB
dialnorm_Count : 2
compr_Average : -0.28
compr_Average/String : -0.28 dB
compr_Minimum : -0.28
compr_Minimum/String : -0.28 dB
compr_Maximum : -0.28
compr_Maximum/String : -0.28 dB
compr_Count : 2
dynrng_Average : -1.48
dynrng_Average/String : -1.48 dB
dynrng_Minimum : -1.48
dynrng_Minimum/String : -1.48 dB
dynrng_Maximum : -1.48
dynrng_Maximum/String : -1.48 dB
dynrng_Count : 2








Download / Скачать

Хотите скачать бесплатно? Зарегистрируйтесь на сайте (ссылка на регистрацию). Pirat.ca - самый быстрый торрент трекер в рунете!

Как скачивать  ·   Что такое торрент  ·   Рейтинг и ограничения



Последний раз редактировалось: Deco (2011-11-06 20:30), всего редактировалось 1 раз

Пост 31-Окт-2011 02:28 (спустя 1 час 6 минут)

Топик был перенесен из форума Наше Кино в форум Российские фильмы

Чужая
 

Luzhok

Легенда

Пост 31-Окт-2011 02:36 (спустя 1 час 14 минут)

[Q] 

помогу
Deco,
спасибо
[Профиль]  [ЛС] 

Creed72

9777

Пост 01-Ноя-2011 19:46 (спустя 1 день 17 часов)

[Q] 

Раздача поддерживается группой Seed Aid.

_________________
Я мзду не беру. Мне за Державу обидно.(с)
[Профиль]  [ЛС] 

корочка хлеба

Лоцман

Пост 03-Ноя-2011 21:12 (спустя 2 дня 1 час)

[Q] 

Вот памоему - это единственная версия фильма близкая к книге... астальное - ирунда! (Апсуждать нибуду) Спасибо за раздачу до земли! )))

_________________
Подпись отключена за нарушение правил форума
[Профиль]  [ЛС] 

Deco ®

Корсар

1365

Пост 06-Ноя-2011 20:31 (спустя 2 дня 23 часа)

[Q] 

Перезалито!

_________________
[Профиль]  [ЛС] 

lipisey

Лоцман

Пост 29-Ноя-2011 16:14 (спустя 22 дня)

[Q] 

Спасибо!
[Профиль]  [ЛС] 

Deco ®

Корсар

1365

Пост 29-Ноя-2011 19:42 (спустя 3 часа)

[Q] 

Незачто

_________________
[Профиль]  [ЛС] 

Dicknose

Лоцман

Пост 20-Янв-2012 23:04 (спустя 1 месяц 21 день)

[Q] 

Спасибо)
[Профиль]  [ЛС] 

tomatto

Морской Волк

Пост 22-Янв-2012 12:47 (спустя 1 день 13 часов)

[Q] 

интересно было бы посмотреть на полную версию этой картины...в интернетах пишут, что режиссеру пришлось ощутимо укоротить ленту. Однако в 2006м все-таки удалось просочиться в сеть всему,так сказать,объему...Мастер и Маргарита,однако..
[Профиль]  [ЛС] 

Fate-Lucky

Штурман

Пост 06-Фев-2012 20:35 (спустя 15 дней)

[Q] 

ну вообще то самый близкий фильм к книге это сериал Бартко, строчка в строчку
[Профиль]  [ЛС] 

temniy-lord

Морской Волк

Пост 07-Фев-2012 20:01 (спустя 23 часа)

[Q] 

классика)))

_________________
[Профиль]  [ЛС] 

Luzhok

Легенда

Пост 15-Дек-2012 18:11 (спустя 10 месяцев 7 дней)

[Q] 

раздача будет восстановлена?
[Профиль]  [ЛС] 

montessuma

Лоцман

Пост 07-Мар-2013 21:05 (спустя 2 месяца 23 дня)

[Q] 

[Профиль]  [ЛС] 

khvorovs

Шкипер

13

Пост 09-Мар-2013 11:18 (спустя 1 день 14 часов)

[Q] 

[Профиль]  [ЛС] 
Показать сообщения:    
Ответить на тему

Текущее время: Сегодня 21:56

Часовой пояс: GMT + 4



Вы не можете начинать темы
Вы не можете отвечать на сообщения
Вы не можете редактировать свои сообщения
Вы не можете удалять свои сообщения
Вы не можете голосовать в опросах
Вы не можете прикреплять файлы к сообщениям
Вы не можете скачивать файлы

▼ Вниз