ML
     
  Уважаемый Гость!
Вы можете поддержать проект и зарегистрироваться у наших партнеров - онлайн-стратегия MyLands. При регистрации в игре Вы получите код, который сможете активировать после регистрации на pirat.ca и получить 1000 дублонов.

Ваш код:
4399ab8611ee7f8a22949d2ee7634160dd2db7e0
 
     

Небо видело всё (Константин Шелепов) [2011 г., постапокалипсис, драма, экшн, HD-DVDRip] [720p]

Ответить на тему
 
Автор
Сообщение

Пост 28-Окт-2011 01:24

[Q] 

Призрак

Корсар

Небо видело всё
Год выпуска: 2011
Страна: Россия
Жанр: постапокалипсис, драма, экшн
Продолжительность: 40 минут
Перевод: Не требуется
Русские субтитры: нет
Режиссер: Константин Шелепов
В ролях: [Вячеслав Тихонович Гроздов], Александр Филиппов, Мария Зайцева, Петр Желтухин, Юрий Клементьев, Сергей Куницкий, Андрей Хамидулин, Сергей Славин, Ольга Бабенко, Глеб Драчёв, Игорь Шелепов, Александр Смирнов, Виталий Логинов, Евгений Лучинскас, Константин Сироткин и др.
Описание: Россия, недалекое будущее, мир пережил войну. Главный герой потерял связь со своей любимой девушкой. Прошло немного времени, люди объединились в группы и воевали между собой, но никто и не предполагал, что встреча двух любящих сердец будет такой...
Доп. информация: Снимался независимой съемочной группой. Без бюджета и финансирования.
Официальный сайт фильма: http://www.nebo-film.ru
Качество: HD-DVDRip
Формат: MP4
Видео кодек: H.264
Аудио кодек: AC3
Видео: AVC, 1280х720, 16:9, 25к/с, битрейт: 6 604 Kbps
Аудио: AAC, 44,1 КГц, битрейт: 192, 2 канала(L,R)
General
Complete name : D:\incoming\Nebo_videlo_vse_HD.mp4
Format : MPEG-4
Format profile : Base Media / Version 2
Codec ID : mp42
File size : 1.81 GiB
Duration : 39mn 20s
Overall bit rate : 6 604 Kbps
Encoded date : UTC 2011-05-22 17:01:32
Tagged date : UTC 2011-05-22 17:01:32
Video
ID : 1
Format : AVC
Format/Info : Advanced Video Codec
Format profile : [email protected]
Format settings, CABAC : Yes
Format settings, ReFrames : 3 frames
Codec ID : avc1
Codec ID/Info : Advanced Video Coding
Duration : 39mn 19s
Bit rate mode : Variable
Bit rate : 6 411 Kbps
Width : 1 280 pixels
Height : 720 pixels
Display aspect ratio : 16:9
Frame rate mode : Constant
Frame rate : 25.000 fps
Standard : PAL
Color space : YUV
Chroma subsampling : 4:2:0
Bit depth : 8 bits
Scan type : Progressive
Bits/(Pixel*Frame) : 0.278
Stream size : 1.76 GiB (97%)
Language : English
Encoded date : UTC 2011-05-22 17:01:32
Tagged date : UTC 2011-05-22 17:01:32
Audio
ID : 2
Format : AAC
Format/Info : Advanced Audio Codec
Format version : Version 4
Format profile : LC
Codec ID : 40
Duration : 39mn 20s
Bit rate mode : Variable
Bit rate : 192 Kbps
Maximum bit rate : 301 Kbps
Channel(s) : 2 channels
Channel positions : Front: L R
Sampling rate : 48.0 KHz
Compression mode : Lossy
Stream size : 53.3 MiB (3%)
Language : English
Encoded date : UTC 2011-05-22 17:01:32
Tagged date : UTC 2011-05-22 17:01:32
Download / Скачать

Хотите скачать бесплатно? Зарегистрируйтесь на сайте (ссылка на регистрацию). Pirat.ca - самый быстрый торрент трекер в рунете!

Как скачивать  ·   Что такое торрент  ·   Рейтинг и ограничения



Последний раз редактировалось: Призрак (2011-10-28 10:04), всего редактировалось 1 раз

Пост 29-Окт-2011 03:38 (спустя 1 день 2 часа)

Топик был перенесен из форума Наше Кино в форум Российские фильмы

oliks
 

Фисташка

Пост 15-Авг-2012 12:03 (спустя 9 месяцев 18 дней)

[Q] 

.
[Профиль]  [ЛС] 

pum

Корсар

Пост 17-Ноя-2012 21:37 (спустя 3 месяца 2 дня)

[Q] 

Смотрел... Печальный конец. Не понял задумки автора. Жестокость войны? Любовь? Люди-звери?
[Профиль]  [ЛС] 

dr_web

Лоцман

8

Пост 18-Ноя-2012 11:12 (спустя 13 часов)

[Q] 

[Профиль]  [ЛС] 
Показать сообщения:    
Ответить на тему

Текущее время: Сегодня 10:48

Часовой пояс: GMT + 4



Вы не можете начинать темы
Вы не можете отвечать на сообщения
Вы не можете редактировать свои сообщения
Вы не можете удалять свои сообщения
Вы не можете голосовать в опросах
Вы не можете прикреплять файлы к сообщениям
Вы не можете скачивать файлы

▼ Вниз