ML
     
  Уважаемый Гость!
Вы можете поддержать проект и зарегистрироваться у наших партнеров - онлайн-стратегия MyLands. При регистрации в игре Вы получите код, который сможете активировать после регистрации на pirat.ca и получить 1000 дублонов.

Ваш код:
4399ab8611ee7f8a22949d2ee7634160dd2db7e0
 
     

Мама, не горюй (Максим Пежемский) [1997 г., Комедия, Криминал, DVDRip]

Ответить на тему
 
Автор
Сообщение

Пост 02-Ноя-2011 02:15

[Q] 

Roszondas

Штурман

Мама, не горюй
Год выпуска: 1997
Жанр: Комедия, Криминал
Продолжительность: 01:21:57
Режиссер: Максим Пежемский
В ролях: Андрей Панин, Гоша Куценко, Николай Чиндяйкин, Александр Робак, Евгений Сидихин, Иван Охлобыстин, Олеся Судзиловская, Елена Шевченко
Описание: Была свадьба. Гуляли реальные люди. Чисто конкретно пели-плясали, отдыхали по-человечески. И развели их на драку. Морячок взял да и огрел стулом Туриста. Чтоб к невесте не приставал. А Турист был серьезный мужчина. И потому сразу образовались такие разборки, что мама не горюй! Морячок с собственной свадьбы сделал ноги, и наутро его уже искали милиция, киллеры, родственники невесты, друзья Туриста и разный прочий любопытный народ…
Качество: DVDRip
Формат: AVI
Видео кодек: XviD
Аудио кодек: AC3
Видео: 704 x 448 (11:7), 25 fps, 2084 kbps
Аудио: Russian, 448 kbps, 6ch, 48 kHz
Видео
Идентификатор : 0
Формат : MPEG-4 Visual
Профиль формата : Advanced [email protected]
Параметр BVOP формата : 1
Параметр QPel формата : Нет
Параметр GMC формата : Без точки перехода
Параметр матрицы формата : Выборочная
Идентификатор кодека : XVID
Идентификатор кодека/Подсказка : XviD
Продолжительность : 1 ч. 21 м.
Битрейт : 2085 Кбит/сек
Ширина : 704 пикселя
Высота : 448 пикселей
Соотношение сторон : 1,571
Частота кадров : 25,000 кадров/сек
Цветовое пространство : YUV
Субдискретизация насыщенности : 4:2:0
Битовая глубина : 8 бит
Тип развёртки : Прогрессивная
Метод сжатия : С потерями
Бит/(Пиксели*Кадры) : 0.264
Размер потока : 1,19 Гбайт (82%)
Библиотека кодирования : XviD 1.2.1 (UTC 2008-12-04)
Аудио
Идентификатор : 1
Формат : AC-3
Формат/Информация : Audio Coding 3
Расширение режима : CM (complete main)
Идентификатор кодека : 2000
Продолжительность : 1 ч. 21 м.
Вид битрейта : Постоянный
Битрейт : 448 Кбит/сек
Каналы : 6 каналов
Расположение каналов : Front: L C R, Side: L R, LFE
Частота : 48,0 КГц
Битовая глубина : 16 бит
Метод сжатия : С потерями
Размер потока : 263 Мбайт (18%)
Выравнивание : Разделение по промежуткам
Продолжительность промежутка : 40 мс. (1,00 видеокадр)
Время предзагрузки промежутка : 500 мс.




Download / Скачать

Хотите скачать бесплатно? Зарегистрируйтесь на сайте (ссылка на регистрацию). Pirat.ca - самый быстрый торрент трекер в рунете!

Как скачивать  ·   Что такое торрент  ·   Рейтинг и ограничения

Luzhok

Легенда

Пост 02-Ноя-2011 02:29 (спустя 14 минут)

[Q] 

помогу с раздачей
Roszondas, спасибо
[Профиль]  [ЛС] 

Roszondas ®

Штурман

65

Пост 02-Ноя-2011 02:47 (спустя 17 минут)

[Q] 

Оперативно, еще и проверить не успели...
Тебе спасибо, Luzhok, и попутного ветра =)
[Профиль]  [ЛС] 

Амангельды

35485

Пост 02-Ноя-2011 07:50 (спустя 5 часов)

[Q] 

Roszondas, молодца, отличное кино!!! Вот же было время!!!

_________________

Товарищ, верь, пройдет она,
Так называемая гласность.
И вот тогда госбезопасность
Припомнит ваши имена
Раздачи от Амангельды - ТЫНЦ
[Профиль]  [ЛС] 

Пост 02-Ноя-2011 09:37 (спустя 1 час 47 минут)

Топик был перенесен из форума Наше Кино в форум Российские фильмы

Чужая
 

vit70

Лоцман

Пост 04-Ноя-2011 20:10 (спустя 2 дня 12 часов)

[Q] 

Спасибо, посмотрим.
[Профиль]  [ЛС] 

and48

Корсар

169

Пост 23-Янв-2012 19:35 (спустя 2 месяца 18 дней)

[Q] 

По просьбе Хока 34 встал на раздачу, а желающих качать что то не видно.
[Профиль]  [ЛС] 

VaNo192

Корсар

Пост 27-Янв-2012 06:37 (спустя 3 дня)

[Q] 

Да, весёлое кино...
[Профиль]  [ЛС] 

Luzhok

Легенда

Пост 15-Дек-2012 18:17 (спустя 10 месяцев 19 дней)

[Q] 

79879Да, весёлое кино...
... было
пока раздача не грохнулась
[Профиль]  [ЛС] 
Показать сообщения:    
Ответить на тему

Текущее время: Сегодня 10:45

Часовой пояс: GMT + 4



Вы не можете начинать темы
Вы не можете отвечать на сообщения
Вы не можете редактировать свои сообщения
Вы не можете удалять свои сообщения
Вы не можете голосовать в опросах
Вы не можете прикреплять файлы к сообщениям
Вы не можете скачивать файлы

▼ Вниз