ML
     
  Уважаемый Гость!
Вы можете поддержать проект и зарегистрироваться у наших партнеров - онлайн-стратегия MyLands. При регистрации в игре Вы получите код, который сможете активировать после регистрации на pirat.ca и получить 1000 дублонов.

Ваш код:
69f316be79867e9bf99caee9682d20bb11964507
 
     

Утомленные солнцем 2: Предстояние (Никита Михалков) [2010 г., драма, DVDRip]

Ответить на тему
 
Автор
Сообщение

Пост 02-Ноя-2011 02:17

[Q] 

boltikov

Лоцман

Утомленные солнцем 2: Предстояние
Год выпуска: 2010
Жанр: драма
Продолжительность: 02:53:27
Режиссер: Никита Михалков
В ролях: Виктория Толстоганова, Владимир Ильин, Олег Меньшиков, Надежда Михалкова, Никита Михалков, Дмитрий Дюжев, Андрей Панин, Михаил Ефремов, Александр Пашутин, Валентин Гафт
Описание: Бывший комдив Котов, несправедливо осуждённый в 30-е годы как враг народа, чудом выжил и был отправлен на войну обычным рядовым бойцом штрафного батальона. Воевал, как все: в грязи, холоде и голоде, не заглядывая в будущее больше, чем на один день, да и тот надо было суметь прожить. Прожить и выжить в аду, которым была военная передовая. Его спасла вера. Вера в свою страну, вера в Бога и вера его дочери Нади в то, что отец жив…
Доп. информация: http://www.kinopoisk.ru/level/1/film/103299
General
Complete name : Utomlyonnye_solntsem_2_DVDRip_[pirat.ca].avi
Format : AVI
Format/Info : Audio Video Interleave
File size : 2.06 GiB
Duration : 2h 53mn
Overal bit rate : 1697 Kbps
Writing application : VirtualDubMod 1.5.4.1 (build 2178/release)
Writing library : VirtualDubMod build 2178/release
Video
Format : MPEG-4 Visual
Format profile : [email protected]
Format settings, BVOP : No
Format settings, QPel : No
Format settings, GMC : No warpoints
Format settings, Matrix : Default
Codec ID : XVID
Codec ID/Hint : XviD
Duration : 2h 53mn
Bit rate : 1236 Kbps
Width : 720 pixels
Height : 304 pixels
Display aspect ratio : 2.35
Frame rate : 25.000 fps
Resolution : 8 bits
Colorimetry : 4:2:0
Scan type : Progressive
Bits/(Pixel*Frame) : 0.226
Stream size : 1.50 GiB
Writing library : XviD 50
Audio
Format : AC-3
Format/Info : Audio Coding 3
Codec ID : 2000
Duration : 2h 53mn
Bit rate mode : Constant
Bit rate : 448 Kbps
Channel(s) : 6 channels
Channel positions : Front: L C R, Rear: L R, LFE
Sampling rate : 48.0 KHz
Stream size : 556 MiB
Источник/Качество: DVDRip
Формат: AVI
Видео кодек: XviD
Аудио кодек: AC3
Видео: 720x304 (2.37:1), 25 fps, XviD build 50 ~1241 kbps avg, 0.23 bit/pixel
Аудио: 48 kHz, AC3 Dolby Digital, 3/2 (L,C,R,l,r) + LFE ch, ~448 kbps






Download / Скачать

Хотите скачать бесплатно? Зарегистрируйтесь на сайте (ссылка на регистрацию). Pirat.ca - самый быстрый торрент трекер в рунете!

Как скачивать  ·   Что такое торрент  ·   Рейтинг и ограничения



Последний раз редактировалось: boltikov (2011-11-08 21:11), всего редактировалось 2 раз(а)

Filimonia

Корсар

Пост 03-Ноя-2011 03:52 (спустя 1 день 1 час)

[Q] 

Спасибо!
Поддержу
[Профиль]  [ЛС] 

Пост 04-Ноя-2011 00:13 (спустя 20 часов)

Топик был перенесен из форума Наше Кино в форум Российские фильмы

Чужая
 

Filimonia

Корсар

Пост 08-Ноя-2011 03:44 (спустя 4 дня)

[Q] 

Фильм хороший. Не хочется терять. Перезалейте пожалуйста Вашу раздачу:
Внимание! Просьба перезалить торрент файлы за последнюю неделю.
[Профиль]  [ЛС] 

Artreds

Корсар

808

Пост 07-Окт-2012 01:24 (спустя 10 месяцев 28 дней)

[Q] 

Фильм гавно, давайте это потеряем, я думаю никто не расстроится.

_________________

[Профиль]  [ЛС] 
Показать сообщения:    
Ответить на тему

Текущее время: Сегодня 14:32

Часовой пояс: GMT + 4



Вы не можете начинать темы
Вы не можете отвечать на сообщения
Вы не можете редактировать свои сообщения
Вы не можете удалять свои сообщения
Вы не можете голосовать в опросах
Вы не можете прикреплять файлы к сообщениям
Вы не можете скачивать файлы

▼ Вниз